lvchao9947
一代宗师

[2022] [韩国] [剧情] [BD-1080P] 分贝[简繁字幕].Desibel.2022.1080p.BluRay.x264.DTS-CTRLHD 13.82GB

-->

完整标题:分贝[简繁字幕].Desibel.2022.1080p.BluRay.x264.DTS-CTRLHD 13.82GB



◎标  题 分贝
◎译  名 音爆浩劫(台) / 分贝恐袭(港) / Decibel
◎片  名 데시벨
◎年  代 2022
◎产  地 韩国
◎类  别 剧情 / 动作
◎语  言 韩语
◎上映日期 2022-11-16(韩国)
◎IMDb评分 6.1/10 (1434人评价)
◎IMDb链接 https://www.imdb.com/title/tt17494686/
◎豆瓣评分 5.8/10 (2491人评价)
◎豆瓣链接 https://movie.douban.com/subject/35332951/
◎片  长 110分钟
◎导  演 黄仁浩 In-ho Hwang
◎演  员 金来沅 Rae-won Kim
      李钟硕 Jong-suk Lee
      车银优 Cha Eun-Woo
      李民基 Min-gi Lee
      朴炳垠 Byung-eun Park
      李相喜 Sang-hee Lee
      郑尚勋 Sang-hoon Jung
      赵达焕 Dal-hwan Jo
      张世元 Se-Won Jang
      卢圣恩 Noh Seong Eun
      李承勋 Lee Seung Hun

◎简  介
    李钟硕将出演新电影《分贝》, 该片是一部动作片,讲述一年前因潜水艇事件在市中心发生恐怖袭击后,副舰长、记者、军事安保支援司令部等主要人物阻止其发生的事件,预计今年春天开拍。

点击图片可查看大图

软字幕无法在截图上展现,HDR版本/杜比视界版本截图会出现颜色异常,请使用支持的设备播放!

##### MediaInfo ######
General
Unique ID : 235535263911680162550471130826865975937 (0xB1327118036EA15209DBA95D2C2D2281)
Complete name : Desibel.2022.1080p.BluRay.x264.DTS-CTRLHD.mkv
Duration : 1 h 50 min
Overall bit rate : 18.0 Mb/s

Video
ID : 1
Format : AVC
Format/Info : Advanced Video Codec
Format profile : [email protected]
Format settings : CABAC / 5 Ref Frames
Format settings, CABAC : Yes
Format settings, Reference frames : 5 frames
Codec ID : V_MPEG4/ISO/AVC
Duration : 1 h 50 min
Bit rate : 16.5 Mb/s
Width : 1 920 pixels
Height : 804 pixels
Display aspect ratio : 2.40:1
Frame rate mode : Constant
Frame rate : 23.976 (24000/1001) FPS
Color space : YUV
Chroma subsampling : 4:2:0
Bit depth : 8 bits
Scan type : Progressive
Bits/(Pixel*Frame) : 0.446
Stream size : 12.7 GiB (92%)
Title : A @ WiKi
Writing library : x264 core 157 r2969 d4099dd
Encoding settings : cabac=1 / ref=5 / deblock=1:-3:-3 / analyse=0x3:0x133 / me=umh / subme=11 / psy=1 / psy_rd=1.05:0.10 / mixed_ref=1 / me_range=64 / chroma_me=1 / trellis=2 / 8x8dct=1 / cqm=0 / deadzone=21,11 / fast_pskip=0 / chroma_qp_offset=-3 / threads=25 / lookahead_threads=6 / sliced_threads=0 / nr=0 / decimate=0 / interlaced=0 / bluray_compat=0 / constrained_intra=0 / bframes=10 / b_pyramid=2 / b_adapt=2 / b_bias=0 / direct=3 / weightb=1 / open_gop=0 / weightp=2 / keyint=250 / keyint_min=23 / scenecut=40 / intra_refresh=0 / rc=2pass / mbtree=0 / bitrate=16500 / ratetol=1.0 / qcomp=0.65 / qpmin=0 / qpmax=69 / qpstep=4 / cplxblur=20.0 / qblur=0.5 / ip_ratio=1.40 / pb_ratio=1.30 / aq=3:0.70
Language : Korean
Default : Yes
Forced : No

Audio
ID : 2
Format : DTS
Format/Info : Digital Theater Systems
Codec ID : A_DTS
Duration : 1 h 50 min
Bit rate mode : Constant
Bit rate : 1 509 kb/s
Channel(s) : 6 channels
Channel layout : C L R Ls Rs LFE
Sampling rate : 48.0 kHz
Frame rate : 93.750 FPS (512 SPF)
Bit depth : 16 bits
Compression mode : Lossy
Stream size : 1.16 GiB (8%)
Title : Korean
Language : Korean
Default : Yes
Forced : No

Text #1
ID : 3
Format : UTF-8
Codec ID : S_TEXT/UTF8
Codec ID/Info : UTF-8 Plain Text
Duration : 1 h 42 min
Bit rate : 42 b/s
Frame rate : 0.206 FPS
Count of elements : 1264
Stream size : 32.1 KiB (0%)
Title : 简体
Language : Chinese
Default : No
Forced : No

Text #2
ID : 4
Format : UTF-8
Codec ID : S_TEXT/UTF8
Codec ID/Info : UTF-8 Plain Text
Duration : 1 h 42 min
Bit rate : 42 b/s
Frame rate : 0.206 FPS
Count of elements : 1264
Stream size : 32.1 KiB (0%)
Title : 繁體
Language : Chinese
Default : No
Forced : No

Menu
00:00:00.000 : ko:Chapter 01
00:08:00.397 : ko:Chapter 02
00:18:47.126 : ko:Chapter 03
00:28:40.177 : ko:Chapter 04
00:37:01.803 : ko:Chapter 05
00:49:41.812 : ko:Chapter 06
00:58:42.561 : ko:Chapter 07
01:07:00.558 : ko:Chapter 08
01:15:43.205 : ko:Chapter 09
01:25:34.588 : ko:Chapter 10
01:34:25.285 : ko:Chapter 11
01:43:29.078 : ko:Chapter 12


部分资源为软字幕,移动端推荐播放器:MxPlayer,nPlayer,infuse ,其他播放器请自行尝试。

部分资源为软字幕,电脑端推荐播放器:PotPlayer,完美解码,KMPLAYER,其他播放器请自行尝试。



1 个附件 售价 大小 下载 时间

Desibel.2022.1080p.BluRay.x264.DTS-CTRLHD[1LOU.ME].torrent 0 金币 37.63K 1820 次 1月前

#1楼
发帖时间:2024-02-25 22:04:33   |   回复数:1
liyouchai
隐世仙人♂
谢谢楼主分享资源
1月前 #2楼
游客组