Asuka601
隐世仙人♂

[2018] [大陆] [剧情] [WEB-4K] 找到你[60帧率版本][国语音轨/中文字幕].Lost.Found.2018.60FPS.2160p.WEB-DL.H265.10bit.AAC-GPTHD 1

-->

完整标题:找到你[60帧率版本][国语音轨/中文字幕].Lost.Found.2018.60FPS.2160p.WEB-DL.H265.10bit.AAC-GPTHD 17.90GB



◎标  题 找到你
◎译  名 谜踪 / Lost / Found
◎年  代 2018
◎产  地 中国大陆
◎类  别 剧情 / 家庭
◎语  言 汉语普通话
◎上映日期 2018-10-05(中国大陆) / 2018-06-17(上海电影节)
◎IMDb评分 6.5/10 (340人评价)
◎IMDb链接 https://www.imdb.com/title/tt9034530/
◎豆瓣评分 7.3/10 (200688人评价)
◎豆瓣链接 https://movie.douban.com/subject/27140071/
◎片  长 102分钟
◎导  演 吕乐 Yue Lü
◎编  剧 秦海燕 Haiyan Qin
◎演  员 姚晨 Chen Yao
      马伊琍 Yili Ma
      袁文康 Wenkang Yuan
      吴昊宸 Haochen Wu
      王梓尘 Zichen Wang
      陶昕然 Xinran Tao
      高叶 Ye Gao
      齐欢 Huan Qi
      史启 Qi Shi
      于臻惠 Zhenhui Yu
      侯相彪 Xiangbiao Hou
      韩龙瑄 Longxuan Han
      袁晶 Jing Yuan

◎简  介
    律师李捷(姚晨 饰)正在离婚进行时,与前夫争夺女儿抚养权,拼命工作为给孩子最好的生活,幸有保姆孙芳(马伊琍 饰)帮忙照顾孩子视如己出。 一日下班,李捷发现保姆孙芳和女儿毫无预兆地消失了,她内心最大的恐惧变成了现实。在追寻孙芳和女儿的下落时,她收到来自家人的谴责声讨,甚至遭到警方的怀疑。几乎崩溃的李捷,靠着惊人的勇气,踏上独自寻访的旅 程。在追踪过程中,李捷逐渐接近了另一个女人——保姆孙芳的人生故事,她的身份原先都是谎言,而真相也将浮出水面……

点击图片可查看大图

软字幕无法在截图上展现,HDR版本/杜比视界版本截图会出现颜色异常,请使用支持的设备播放!

##### MediaInfo ######
General
Complete name : 找到你.Lost.Found.2018.60FPS.2160p.WEB-DL.H265.10bit.AAC-GPTHD.mp4
Duration : 1 h 41 min
Overall bit rate : 25.1 Mb/s

Video
ID : 1
Format : HEVC
Format/Info : High Efficiency Video Coding
Format profile : Main [email protected]@Main
Codec ID : hev1
Codec ID/Info : High Efficiency Video Coding
Duration : 1 h 41 min
Bit rate : 24.9 Mb/s
Width : 3 840 pixels
Height : 1 616 pixels
Display aspect ratio : 2.40:1
Frame rate mode : Variable
Frame rate : 60.000 FPS
Minimum frame rate : 59.960 FPS
Maximum frame rate : 60.040 FPS
Color space : YUV
Chroma subsampling : 4:2:0
Bit depth : 10 bits
Bits/(Pixel*Frame) : 0.067
Stream size : 17.7 GiB (99%)
Color range : Limited
Color primaries : BT.709
Transfer characteristics : BT.709
Matrix coefficients : BT.709
Codec configuration box : hvcC

Audio
ID : 2
Format : AAC LC
Format/Info : Advanced Audio Codec Low Complexity
Codec ID : mp4a-40-2
Duration : 1 h 41 min
Bit rate mode : Constant
Bit rate : 192 kb/s
Channel(s) : 2 channels
Channel layout : L R
Sampling rate : 44.1 kHz
Frame rate : 43.066 FPS (1024 SPF)
Compression mode : Lossy
Stream size : 140 MiB (1%)
Default : Yes
Alternate group : 1


部分资源为软字幕,移动端推荐播放器:MxPlayer,nPlayer,infuse ,其他播放器请自行尝试。

部分资源为软字幕,电脑端推荐播放器:PotPlayer,完美解码,KMPLAYER,其他播放器请自行尝试。



1 个附件 售价 大小 下载 时间

Lost.Found.2018.60FPS.2160p.WEB-DL.H265.10bit.AAC-GPTHD[1LOU.ME].torrent 0 金币 47.83K 1869 次 1月前

#1楼
发帖时间:2024-02-25 18:58:34   |   回复数:1
liyouchai
隐世仙人♂
谢谢楼主分享资源
1月前 #2楼
游客组