Asuka601
隐世仙人♂

[2017] [欧美] [剧情] [WEB-4K] 勇往直前[60帧率版本][国语配音/中文字幕].Only.the.Brave.2017.2160p.WEB-DL.H265.60fps.AAC-DreamHD

-->

完整标题:勇往直前[60帧率版本][国语配音/中文字幕].Only.the.Brave.2017.2160p.WEB-DL.H265.60fps.AAC-DreamHD 5.03GB



◎标  题 勇往直前
◎译  名 烈焰雄心(港) / 无路可退(台) / Granite Mountain Hotshots / No Exit
◎片  名 Only the Brave
◎年  代 2017
◎产  地 美国
◎类  别 剧情 / 传记 / 灾难
◎语  言 英语
◎上映日期 2017-12-08(中国大陆) / 2017-10-20(美国)
◎IMDb评分 7.6/10 (75511人评价)
◎IMDb链接 https://www.imdb.com/title/tt3829920/
◎豆瓣评分 8.3/10 (97070人评价)
◎豆瓣链接 https://movie.douban.com/subject/26718828/
◎片  长 134分钟 / 127分钟(中国大陆)
◎导  演 约瑟夫·科辛斯基 Joseph Kosinski
◎编  剧 肯·诺兰 Ken Nolan
      埃里克·辛格尔 Eric Singer
      肖恩·弗林 Sean Flynn
◎演  员 乔什·布洛林 Josh Brolin
      迈尔斯·特勒 Miles Teller
      杰夫·布里吉斯 Jeff Bridges
      詹妮弗·康纳利 Jennifer Connelly
      詹姆斯·戴尔 James Badge Dale
      泰勒·克奇 Taylor Kitsch
      安迪·麦克道威尔 Andie MacDowell
      杰夫·斯塔尔茨 Geoff Stults
      亚历克斯·罗素 Alex Russell
      萨德·拉金比尔 Thad Luckinbill
      本·哈迪 Ben Hardy
      斯科特·黑兹 Scott Haze
      杰克·皮克金 Jake Picking
      斯科特·福克斯 Scott Foxx
      迪兰·科宁 Dylan Kenin
      娜塔莉·豪尔 Natalie Hall
      贝尔·詹姆斯 Pell James
      肯尼斯·米勒 Kenneth Miller
      洛拉·玛汀内斯-康宁安 Lora Martinez-Cunningham
      乔什·霍普金斯 Josh Hopkins
      露露·乔沃维奇 Lulu Jovovich

◎简  介
    本片根据“格拉尼特山高手”消防队英勇事迹改编。影片讲述在“格拉尼特山高手队”创建之初,队里既有失足青年也有人面临婚姻危机等各种生活问题。队长埃里克·马什却始终充满热情,督促队员刻苦训练。这支看似由失意者组成的团队也逐 步成为城镇的荣誉象征……然而这一切被突如其来的森林大火所打破。面对近在咫尺的灾难,作为尖兵部队的他们勇往直前,却在阻止火势蔓延时被困火海、命悬一线。整个团队的安危与荣誉也面临巨大考验。

点击图片可查看大图

软字幕无法在截图上展现,HDR版本/杜比视界版本截图会出现颜色异常,请使用支持的设备播放!

##### MediaInfo ######
General
Complete name : Only.the.Brave.2017.2160p.WEB-DL.H265.60fps.AAC-DreamHD.mp4
Duration : 2 h 6 min
Overall bit rate mode : Variable
Overall bit rate : 5 684 kb/s

Video
ID : 1
Format : HEVC
Format/Info : High Efficiency Video Coding
Format profile : [email protected]@Main
Codec ID : hev1
Codec ID/Info : High Efficiency Video Coding
Duration : 2 h 6 min
Bit rate : 5 478 kb/s
Width : 3 840 pixels
Height : 1 600 pixels
Display aspect ratio : 2.40:1
Frame rate mode : Variable
Frame rate : 60.000 FPS
Minimum frame rate : 0.984 FPS
Maximum frame rate : 60.000 FPS
Color space : YUV
Chroma subsampling : 4:2:0
Bit depth : 8 bits
Bits/(Pixel*Frame) : 0.015
Stream size : 4.84 GiB (96%)
Color range : Limited
Color primaries : BT.709
Transfer characteristics : BT.709
Matrix coefficients : BT.709
Codec configuration box : hvcC

Audio
ID : 2
Format : AAC LC
Format/Info : Advanced Audio Codec Low Complexity
Codec ID : mp4a-40-2
Duration : 2 h 6 min
Bit rate mode : Variable
Bit rate : 192 kb/s
Channel(s) : 2 channels
Channel layout : L R
Sampling rate : 44.1 kHz
Frame rate : 43.066 FPS (1024 SPF)
Compression mode : Lossy
Stream size : 172 MiB (3%)
Default : Yes
Alternate group : 1


部分资源为软字幕,移动端推荐播放器:MxPlayer,nPlayer,infuse ,其他播放器请自行尝试。

部分资源为软字幕,电脑端推荐播放器:PotPlayer,完美解码,KMPLAYER,其他播放器请自行尝试。



1 个附件 售价 大小 下载 时间

Only.the.Brave.2017.2160p.WEB-DL.H265.60fps.AAC-DreamHD[1LOU.ME].torrent 0 金币 15.65K 1477 次 1月前

#1楼
发帖时间:2024-02-25 18:51:08   |   回复数:0
游客组