lvchao9947
一代宗师

[2023] [其它] [剧情] [BD-1080P] 一个人的朝圣[简繁字幕].The.Unlikely.Pilgrimage.of.Harold.Fry.2023.1080p.BluRay.x264.DTS-CT

-->

完整标题:一个人的朝圣[简繁字幕].The.Unlikely.Pilgrimage.of.Harold.Fry.2023.1080p.BluRay.x264.DTS-CTRLHD 11.98GB



◎标  题 一个人的朝圣
◎片  名 The Unlikely Pilgrimage of Harold Fry
◎年  代 2023
◎产  地 英国
◎类  别 剧情
◎语  言 英语
◎上映日期 2023-04-22(巴塞罗那圣乔治电影节) / 2023-04-28(英国)
◎IMDb评分 6.8/10 (3220人评价)
◎IMDb链接 https://www.imdb.com/title/tt14097206/
◎豆瓣评分 7.5/10 (1045人评价)
◎豆瓣链接 https://movie.douban.com/subject/35361159/
◎片  长 108分钟
◎导  演 希提·麦克唐纳 Hettie MacDonald
◎编  剧  Rachel Joyce
◎演  员 吉姆·布劳德本特 Jim Broadbent
      佩内洛普·威尔顿 Penelope Wilton
      厄尔·凯夫 Earl Cave
      琳达·巴塞特 Linda Bassett
      丹尼尔·弗格森 Daniel Frogson
      纳奥米·维尔特纳 Naomi Wirthner
      保罗·索恩利 Paul Thornley
      乔伊·理查德森 Joy Richardson
      克莱尔·拉什布鲁克 Claire Rushbrook
      伊恩·波特 Ian Porter
      安德鲁·梁 Andrew Leung
      Tigger Blaize
      杜吉·布朗 Duggie Brown
      Marvin Brown
      Bethan Cullinane Bethan Cullinane
      特雷弗·福克斯 Trevor Fox
      David Gennard
      莫妮卡·戈斯曼 Monika Gossmann
      Howard Grace
      Adam Jackson-Smith
      Jessica Kaur
      Braxton Kolodny
      Sam Lee
      Brian Male
      Alyson Marks
      约瑟夫·迈德尔 Joseph Mydell
      Georgia Nicholson
      Lucy Reynolds
      Nick Sampson
      Bogdan Silaghi
      Nina Singh
      Georgina Strawson
      Leila Temirzhanova
      马努夫·提亚拉 Maanuv Thiara

◎简  介
    吉姆·布劳德本特将主演新片[一个人的朝圣](The Unlikely Pilgrimage of Harold Fry,暂译)。希提·麦克唐纳(《正常人》)执导。该片改编自蕾秋·乔伊斯撰写的同名畅销书,讲述哈罗德·弗莱(布劳德本饰)收到20年未见的好友奎妮的一封信,奎妮患了癌症,写信告别。震惊、悲痛之下,哈罗德写了回信,在寄出的路上,他由奎妮想到了自己的人生,经过了一个又一个邮筒,越走越远,最后,他从英国最西南一路走到了最东北,横跨整个英格兰。87天,627英里,只凭一个信念:只要他走,老友就会活下去。

点击图片可查看大图

软字幕无法在截图上展现,HDR版本/杜比视界版本截图会出现颜色异常,请使用支持的设备播放!

##### MediaInfo ######
General
Unique ID : 84815391763305203394765122760326931854 (0x3FCED9AB91B7D0F1A22D0301F4A2658E)
Complete name : The.Unlikely.Pilgrimage.of.Harold.Fry.2023.1080p.BluRay.x264.DTS-CTRLHD.mkv
Duration : 1 h 48 min
Overall bit rate : 15.8 Mb/s

Video
ID : 1
Format : AVC
Format/Info : Advanced Video Codec
Format profile : [email protected]
Format settings : CABAC / 4 Ref Frames
Format settings, CABAC : Yes
Format settings, Reference frames : 4 frames
Codec ID : V_MPEG4/ISO/AVC
Duration : 1 h 48 min
Bit rate : 14.3 Mb/s
Width : 1 920 pixels
Height : 1 036 pixels
Display aspect ratio : 1.85:1
Frame rate mode : Constant
Frame rate : 24.000 FPS
Color space : YUV
Chroma subsampling : 4:2:0
Bit depth : 8 bits
Scan type : Progressive
Bits/(Pixel*Frame) : 0.299
Stream size : 10.8 GiB (90%)
Writing library : x264 core 129 r2245 bc13772
Encoding settings : cabac=1 / ref=4 / deblock=1:-3:-3 / analyse=0x3:0x133 / me=umh / subme=11 / psy=1 / psy_rd=1.05:0.05 / mixed_ref=1 / me_range=64 / chroma_me=1 / trellis=2 / 8x8dct=1 / cqm=0 / deadzone=21,11 / fast_pskip=0 / chroma_qp_offset=-3 / threads=24 / lookahead_threads=4 / sliced_threads=0 / nr=0 / decimate=1 / interlaced=0 / bluray_compat=0 / constrained_intra=0 / bframes=10 / b_pyramid=2 / b_adapt=2 / b_bias=0 / direct=3 / weightb=1 / open_gop=0 / weightp=2 / keyint=250 / keyint_min=24 / scenecut=40 / intra_refresh=0 / rc_lookahead=60 / rc=2pass / mbtree=1 / bitrate=14292 / ratetol=1.0 / qcomp=0.60 / qpmin=0 / qpmax=69 / qpstep=4 / cplxblur=20.0 / qblur=0.5 / vbv_maxrate=40000 / vbv_bufsize=30000 / nal_hrd=none / ip_ratio=1.40 / aq=1:0.80
Language : English
Default : Yes
Forced : No

Audio
ID : 2
Format : DTS
Format/Info : Digital Theater Systems
Codec ID : A_DTS
Duration : 1 h 48 min
Bit rate mode : Constant
Bit rate : 1 509 kb/s
Channel(s) : 6 channels
Channel layout : C L R Ls Rs LFE
Sampling rate : 48.0 kHz
Frame rate : 93.750 FPS (512 SPF)
Bit depth : 24 bits
Compression mode : Lossy
Stream size : 1.15 GiB (10%)
Default : Yes
Forced : No

Text #1
ID : 3
Format : UTF-8
Codec ID : S_TEXT/UTF8
Codec ID/Info : UTF-8 Plain Text
Duration : 1 h 46 min
Bit rate : 29 b/s
Frame rate : 0.157 FPS
Count of elements : 1006
Stream size : 23.4 KiB (0%)
Title : 简体
Language : Chinese
Default : Yes
Forced : No

Text #2
ID : 4
Format : UTF-8
Codec ID : S_TEXT/UTF8
Codec ID/Info : UTF-8 Plain Text
Duration : 1 h 46 min
Bit rate : 29 b/s
Frame rate : 0.157 FPS
Count of elements : 1006
Stream size : 23.4 KiB (0%)
Title : 繁体
Language : Chinese
Default : Yes
Forced : No


部分资源为软字幕,移动端推荐播放器:MxPlayer,nPlayer,infuse ,其他播放器请自行尝试。

部分资源为软字幕,电脑端推荐播放器:PotPlayer,完美解码,KMPLAYER,其他播放器请自行尝试。



1 个附件 售价 大小 下载 时间

The.Unlikely.Pilgrimage.of.Harold.Fry.2023.1080p.BluRay.x264.DTS-CTRLHD[1LOU.ME].torrent 0 金币 33.14K 1491 次 1月前

#1楼
发帖时间:2024-02-25 18:44:36   |   回复数:0
游客组