Asuka601
隐世仙人♂

[2021] [日本] [科幻] [BD-4K] 雀斑公主[HDR/杜比视界双版本][国英日多音轨/中文字幕/特效字幕].2021.UHD.BluRay.REMUX.2160p.HEVC.DoVi.Atmos.

-->

完整标题:雀斑公主[HDR/杜比视界双版本][国英日多音轨/中文字幕/特效字幕].2021.UHD.BluRay.REMUX.2160p.HEVC.DoVi.Atmos.TrueHD7.1.2Audio-DreamHD 70.08GB



◎标  题 雀斑公主
◎译  名 龙与雀斑公主(港 / 台) / 龙和雀斑公主 / Belle / Belle: The Princess of Dragons and Freckles / Ryû to sobakasu no hime
◎片  名 竜とそばかすの姫
◎年  代 2021
◎产  地 日本
◎类  别 科幻 / 动画 / 冒险
◎语  言 日语
◎上映日期 2022-08-26(中国大陆) / 2021-07-15(戛纳电影节) / 2021-07-16(日本)
◎IMDb评分 7.1/10 (13755人评价)
◎IMDb链接 https://www.imdb.com/title/tt13651628/
◎豆瓣评分 6.3/10 (24031人评价)
◎豆瓣链接 https://movie.douban.com/subject/35287908/
◎片  长 122分钟 / 120分钟(中国大陆)
◎导  演 细田守 Mamoru Hosoda
◎编  剧 细田守 Mamoru Hosoda
◎演  员 中村佳穗 Kaho Nakamura
      佐藤健 Takeru Satoh
      成田凌 Ryo Narita
      染谷将太 Shôta Sometani
      玉城蒂娜 Tina Tamashiro
      几田莉拉 Ikura
      森川智之 Toshiyuki Morikawa
      津田健次郎 Kenjirô Tsuda
      小山茉美 Mami Koyama
      宫野真守 Mamoru Miyano
      森山良子 Ryoko Moriyama
      役所广司 Kôji Yakusho
      伊豆田莉奈 Rina Izuta
      石黑贤 Ken Ishiguro
      浅野杏奈 Anna Asano
      葛西美空 Miku Kasai
      田中乃爱 Noa Tanaka

◎简  介
    影片讲述着在一个拥有50亿用户的元宇宙U中,每个人都能开启自己的人生。17岁高中生铃,因年幼时母亲离世而变得沉默寡言。她不愿与父亲交流,不愿再开口唱歌,甚至对一直守护自己的阿忍也渐行渐远。为逃离灰色的生活,铃选择进入元宇宙的世界,摇身一变迅速走红成为闪耀的顶流歌姬。此时,她的巨星之路随着“竜”的意外闯入,而演变成一场充满未知的冒险出逃。雀斑公主和神秘“恶竜”的真身有着怎么样的纠葛?他们又该如何用爱和勇气对抗现实的刺痛?

点击图片可查看大图

软字幕无法在截图上展现,HDR版本/杜比视界版本截图会出现颜色异常,请使用支持的设备播放!

##### MediaInfo ######
General
Unique ID : 290625645827391279698565919987070426682 (0xDAA476A0C3F0CA4F6D173C267EA85E3A)
Complete name : Ryu.to.sobakasu.no.hime.AKA.Belle.2021.UHD.BluRay.REMUX.2160p.HEVC.DoVi.Atmos.TrueHD7.1.2Audio-DreamHD.mkv
Duration : 2 h 1 min
Overall bit rate mode : Variable
Overall bit rate : 82.8 Mb/s

Video
ID : 1
ID in the original source medium : 4113 (0x1011)
Format : HEVC
Format/Info : High Efficiency Video Coding
Format profile : Main [email protected]@High
HDR format : Dolby Vision, Version 1.0, dvhe.07.06, BL+EL+RPU, Blu-ray compatible / SMPTE ST 2086, HDR10 compatible
Codec ID : V_MPEGH/ISO/HEVC
Duration : 2 h 1 min
Bit rate : 74.6 Mb/s
Width : 3 840 pixels
Height : 2 160 pixels
Display aspect ratio : 16:9
Frame rate mode : Constant
Frame rate : 23.976 (24000/1001) FPS
Color space : YUV
Chroma subsampling : 4:2:0 (Type 2)
Bit depth : 10 bits
Bits/(Pixel*Frame) : 0.375
Stream size : 63.2 GiB (90%)
Language : English
Default : No
Forced : No
Color range : Limited
Color primaries : BT.2020
Transfer characteristics : PQ
Matrix coefficients : BT.2020 non-constant
Mastering display color primaries : BT.2020
Mastering display luminance : min: 0.0001 cd/m2, max: 1000 cd/m2
Maximum Content Light Level : 522 cd/m2
Maximum Frame-Average Light Level : 198 cd/m2
Original source medium : Blu-ray

Audio #1
ID : 2
ID in the original source medium : 4353 (0x1101)
Format : MLP FBA 16-ch
Format/Info : Meridian Lossless Packing FBA with 16-channel presentation
Commercial name : Dolby TrueHD with Dolby Atmos
Codec ID : A_TRUEHD
Duration : 2 h 1 min
Bit rate mode : Variable
Bit rate : 7 208 kb/s
Maximum bit rate : 14.1 Mb/s
Channel(s) : 8 channels
Channel layout : L R C LFE Ls Rs Lb Rb
Sampling rate : 48.0 kHz
Frame rate : 1 200.000 FPS (40 SPF)
Bit depth : 24 bits
Compression mode : Lossless
Stream size : 6.10 GiB (9%)
Title : 环绕声 7.1
Language : Japanese
Default : Yes
Forced : No
Original source medium : Blu-ray
Number of dynamic objects : 15
Bed channel count : 1 channel
Bed channel configuration : LFE

Audio #2
ID : 3
ID in the original source medium : 4355 (0x1103)
Format : AC-3
Format/Info : Audio Coding 3
Commercial name : Dolby Digital
Codec ID : A_AC3
Duration : 2 h 1 min
Bit rate mode : Constant
Bit rate : 448 kb/s
Channel(s) : 2 channels
Channel layout : L R
Sampling rate : 48.0 kHz
Frame rate : 31.250 FPS (1536 SPF)
Compression mode : Lossy
Stream size : 388 MiB (1%)
Title : 立体声
Language : Chinese
Service kind : Complete Main
Default : No
Forced : No
Original source medium : Blu-ray

Text #1
ID : 4
ID in the original source medium : 4769 (0x12A1)
Format : PGS
Codec ID : S_HDMV/PGS
Codec ID/Info : Picture based subtitle format used on BDs/HD-DVDs
Duration : 1 h 57 min
Bit rate : 107 kb/s
Frame rate : 0.980 FPS
Count of elements : 6882
Stream size : 89.4 MiB (0%)
Language : Chinese
Default : Yes
Forced : No
Original source medium : Blu-ray

Text #2
ID : 5
ID in the original source medium : 4770 (0x12A2)
Format : PGS
Codec ID : S_HDMV/PGS
Codec ID/Info : Picture based subtitle format used on BDs/HD-DVDs
Duration : 1 h 57 min
Bit rate : 103 kb/s
Frame rate : 0.960 FPS
Count of elements : 6742
Stream size : 86.3 MiB (0%)
Language : Chinese
Default : No
Forced : No
Original source medium : Blu-ray

Text #3
ID : 6
ID in the original source medium : 4771 (0x12A3)
Format : PGS
Codec ID : S_HDMV/PGS
Codec ID/Info : Picture based subtitle format used on BDs/HD-DVDs
Duration : 1 h 57 min
Bit rate : 140 kb/s
Frame rate : 0.980 FPS
Count of elements : 6883
Stream size : 117 MiB (0%)
Language : Chinese
Default : No
Forced : No
Original source medium : Blu-ray

Text #4
ID : 7
ID in the original source medium : 4772 (0x12A4)
Format : PGS
Codec ID : S_HDMV/PGS
Codec ID/Info : Picture based subtitle format used on BDs/HD-DVDs
Duration : 1 h 57 min
Bit rate : 144 kb/s
Frame rate : 0.980 FPS
Count of elements : 6883
Stream size : 121 MiB (0%)
Language : Chinese
Default : No
Forced : No
Original source medium : Blu-ray

Menu
00:00:00.000 : en:Chapter 01
00:04:28.184 : en:Chapter 02
00:15:50.449 : en:Chapter 03
00:27:13.006 : en:Chapter 04
00:34:42.413 : en:Chapter 05
00:47:46.321 : en:Chapter 06
00:58:38.348 : en:Chapter 07
01:03:39.190 : en:Chapter 08
01:16:42.681 : en:Chapter 09
01:33:09.542 : en:Chapter 10
01:47:34.197 : en:Chapter 11
01:54:42.876 : en:Chapter 12
02:01:12.265 : en:Chapter 13


部分资源为软字幕,移动端推荐播放器:MxPlayer,nPlayer,infuse ,其他播放器请自行尝试。

部分资源为软字幕,电脑端推荐播放器:PotPlayer,完美解码,KMPLAYER,其他播放器请自行尝试。



1 个附件 售价 大小 下载 时间

2021.UHD.BluRay.REMUX.2160p.HEVC.DoVi.Atmos.TrueHD7.1.2Audio-DreamHD[1LOU.ME].torrent 0 金币 178.36K 1939 次 1月前

#1楼
发帖时间:2024-02-25 10:59:43   |   回复数:0
游客组