Asuka601
隐世仙人♂

[2022] [欧美] [其它] [BD-4K] 跑垒[中文字幕/特效字幕].Running.the.Bases.2022.UHD.BluRay.REMUX.2160p.HEVC.HDR.DTS-HD.MA5.

-->

完整标题:跑垒[中文字幕/特效字幕].Running.the.Bases.2022.UHD.BluRay.REMUX.2160p.HEVC.HDR.DTS-HD.MA5.1-DreamHD 46.78GB



◎标  题 跑垒
◎片  名 Running the Bases
◎年  代 2022
◎产  地 美国
◎类  别 家庭
◎语  言 英语
◎上映日期 2022-09-16(美国)
◎IMDb评分 5.5/10 (500人评价)
◎IMDb链接 https://www.imdb.com/title/tt8110900/
◎豆瓣链接 https://movie.douban.com/subject/36091077/
◎片  长 127分钟
◎导  演 马蒂·罗伯茨 Marty Roberts
      吉米·沃布尔 Jimmy Womble
◎编  剧 马蒂·罗伯茨 Marty Roberts
      吉米·沃布尔 Jimmy Womble
◎演  员 布雷特·瓦维尔 Brett Varvel
      吉吉·奥尔西洛 Gigi Orsillo
      托德·特里 Todd Terry
      卡梅伦·阿内特 Cameron Arnett
      拉斐尔·鲁杰罗 Raphael Ruggero
      埃里克·汉森 Eric Hanson
      伊莎贝尔·阿尔莫扬 Isabelle Almoyan
      贾斯汀·斯特纳 Justin Sterner
      迈克尔·奥乔托雷纳 Michael Ochotorena
      安妮塔·科德尔 Anita Cordell
      以赛亚·拉博德 Isaiah LaBorde
      罗伯特·托马森 Robert Thomason
      加里·内森 Garry Nation
      斯蒂芬·卡迪尔 Stephen Caudill

◎简  介
    What if the only way to win is to lose?

点击图片可查看大图

软字幕无法在截图上展现,HDR版本/杜比视界版本截图会出现颜色异常,请使用支持的设备播放!

##### MediaInfo ######
General
Unique ID : 99969172535320310315166177003495802604 (0x4B355CBF0BE990A077F3BB845500C6EC)
Complete name : Running.the.Bases.2022.UHD.BluRay.REMUX.2160p.HEVC.HDR.DTS-HD.MA5.1-DreamHD.mkv
Duration : 2 h 7 min
Overall bit rate mode : Variable
Overall bit rate : 52.5 Mb/s

Video
ID : 1
ID in the original source medium : 4113 (0x1011)
Format : HEVC
Format/Info : High Efficiency Video Coding
Format profile : Main [email protected]@High
Codec ID : V_MPEGH/ISO/HEVC
Duration : 2 h 7 min
Bit rate : 49.1 Mb/s
Width : 3 840 pixels
Height : 2 160 pixels
Display aspect ratio : 16:9
Frame rate mode : Constant
Frame rate : 23.976 (24000/1001) FPS
Color space : YUV
Chroma subsampling : 4:2:0
Bit depth : 10 bits
Bits/(Pixel*Frame) : 0.247
Stream size : 43.8 GiB (94%)
Writing library : x265 3.3f94b0d32737d:[Mac OS X][clang 12.0.0][32 bit] 10bit
Encoding settings : cpuid=2 / frame-threads=8 / wpp / no-pmode / no-pme / no-psnr / no-ssim / log-level=2 / input-csp=1 / input-res=3840x2160 / interlace=0 / total-frames=0 / level-idc=51 / high-tier=1 / uhd-bd=1 / ref=4 / no-allow-non-conformance / repeat-headers / annexb / aud / hrd / info / hash=0 / no-temporal-layers / no-open-gop / min-keyint=1 / keyint=24 / gop-lookahead=0 / bframes=4 / b-adapt=2 / b-pyramid / bframe-bias=0 / rc-lookahead=25 / lookahead-slices=4 / scenecut=40 / hist-scenecut=0 / radl=0 / no-splice / no-intra-refresh / ctu=64 / min-cu-size=8 / rect / no-amp / max-tu-size=32 / tu-inter-depth=1 / tu-intra-depth=1 / limit-tu=0 / rdoq-level=2 / dynamic-rd=0.00 / no-ssim-rd / signhide / no-tskip / nr-intra=0 / nr-inter=0 / no-constrained-intra / strong-intra-smoothing / max-merge=3 / limit-refs=3 / limit-modes / me=1 / subme=3 / merange=57 / temporal-mvp / no-frame-dup / no-hme / weightp / no-weightb / no-analyze-src-pics / deblock=0:0 / sao / no-sao-non-deblock / rd=4 / selective-sao=4 / no-early-skip / rskip / no-fast-intra / no-tskip-fast / no-cu-lossless / no-b-intra / no-splitrd-skip / rdpenalty=0 / psy-rd=2.00 / psy-rdoq=1.00 / no-rd-refine / no-lossless / cbqpoffs=0 / crqpoffs=0 / rc=abr / bitrate=50000 / qcomp=0.50 / qpstep=4 / stats-write=0 / stats-read=0 / vbv-maxrate=75000 / vbv-bufsize=92000 / vbv-init=0.8 / ipratio=1.40 / pbratio=1.30 / aq-mode=2 / aq-strength=1.00 / cutree / zone-count=0 / no-strict-cbr / qg-size=32 / no-rc-grain / qpmax=51 / qpmin=3 / no-const-vbv / sar=1 / overscan=0 / videoformat=5 / range=0 / colorprim=1 / transfer=1 / colormatrix=1 / chromaloc=0 / display-window=0 / cll=0,0 / min-luma=0 / max-luma=1023 / log2-max-poc-lsb=8 / vui-timing-info / vui-hrd-info / slices=1 / no-opt-qp-pps / no-opt-ref-list-length-pps / no-multi-pass-opt-rps / scenecut-bias=0.05 / hist-threshold=0.01 / no-opt-cu-delta-qp / no-aq-motion / no-hdr10 / no-hdr10-opt / no-dhdr10-opt / no-idr-recovery-sei / analysis-reuse-level=0 / analysis-save-reuse-level=0 / analysis-load-reuse-level=0 / scale-factor=0 / refine-intra=0 / refine-inter=0 / refine-mv=1 / refine-ctu-distortion=0 / no-limit-sao / ctu-info=0 / no-lowpass-dct / refine-analysis-type=0 / copy-pic=1 / max-ausize-factor=1.0 / no-dynamic-refine / no-single-sei / no-hevc-aq / no-svt / no-field / qp-adaptation-range=1.00 / no-scenecut-aware-qpconformance-window-offsets / right=0 / bottom=0
Language : English
Default : No
Forced : No
Color range : Limited
Color primaries : BT.709
Transfer characteristics : BT.709
Matrix coefficients : BT.709
Original source medium : Blu-ray

Audio
ID : 2
ID in the original source medium : 4352 (0x1100)
Format : DTS XLL
Format/Info : Digital Theater Systems
Commercial name : DTS-HD Master Audio
Codec ID : A_DTS
Duration : 2 h 7 min
Bit rate mode : Variable
Bit rate : 3 171 kb/s
Channel(s) : 6 channels
Channel layout : C L R Ls Rs LFE
Sampling rate : 48.0 kHz
Frame rate : 93.750 FPS (512 SPF)
Bit depth : 24 bits
Compression mode : Lossless
Stream size : 2.83 GiB (6%)
Title : 环绕声 5.1
Language : English
Default : Yes
Forced : No
Original source medium : Blu-ray

Text #1
ID : 3
ID in the original source medium : 4608 (0x1200)
Format : PGS
Codec ID : S_HDMV/PGS
Codec ID/Info : Picture based subtitle format used on BDs/HD-DVDs
Duration : 2 h 7 min
Bit rate : 47.6 kb/s
Frame rate : 0.657 FPS
Count of elements : 5014
Stream size : 43.3 MiB (0%)
Language : English
Default : Yes
Forced : No
Original source medium : Blu-ray

Text #2
ID : 4
ID in the original source medium : 4609 (0x1201)
Format : PGS
Codec ID : S_HDMV/PGS
Codec ID/Info : Picture based subtitle format used on BDs/HD-DVDs
Duration : 2 h 7 min
Bit rate : 51.9 kb/s
Frame rate : 0.595 FPS
Count of elements : 4537
Stream size : 47.2 MiB (0%)
Language : Chinese
Default : No
Forced : No
Original source medium : Blu-ray

Text #3
ID : 5
ID in the original source medium : 4610 (0x1202)
Format : PGS
Codec ID : S_HDMV/PGS
Codec ID/Info : Picture based subtitle format used on BDs/HD-DVDs
Duration : 2 h 7 min
Bit rate : 31.0 kb/s
Frame rate : 0.595 FPS
Count of elements : 4537
Stream size : 28.2 MiB (0%)
Language : Chinese
Default : No
Forced : No
Original source medium : Blu-ray

Text #4
ID : 6
ID in the original source medium : 4611 (0x1203)
Format : PGS
Codec ID : S_HDMV/PGS
Codec ID/Info : Picture based subtitle format used on BDs/HD-DVDs
Duration : 2 h 7 min
Bit rate : 55.7 kb/s
Frame rate : 0.595 FPS
Count of elements : 4537
Stream size : 50.6 MiB (0%)
Language : Chinese
Default : No
Forced : No
Original source medium : Blu-ray

Text #5
ID : 7
ID in the original source medium : 4612 (0x1204)
Format : PGS
Codec ID : S_HDMV/PGS
Codec ID/Info : Picture based subtitle format used on BDs/HD-DVDs
Duration : 2 h 7 min
Bit rate : 34.8 kb/s
Frame rate : 0.595 FPS
Count of elements : 4537
Stream size : 31.7 MiB (0%)
Language : Chinese
Default : No
Forced : No
Original source medium : Blu-ray

Menu
00:00:00.000 : en:Chapter 01
00:00:07.007 : en:Chapter 02
00:03:19.073 : en:Chapter 03
00:10:10.067 : en:Chapter 04
00:22:51.787 : en:Chapter 05
00:36:55.880 : en:Chapter 06
00:47:59.042 : en:Chapter 07
01:06:02.917 : en:Chapter 08
01:26:33.688 : en:Chapter 09
01:40:40.576 : en:Chapter 10
01:53:38.144 : en:Chapter 11
02:03:48.087 : en:Chapter 12


部分资源为软字幕,移动端推荐播放器:MxPlayer,nPlayer,infuse ,其他播放器请自行尝试。

部分资源为软字幕,电脑端推荐播放器:PotPlayer,完美解码,KMPLAYER,其他播放器请自行尝试。



1 个附件 售价 大小 下载 时间

Running.the.Bases.2022.UHD.BluRay.REMUX.2160p.HEVC.HDR.DTS-HD.MA5.1-DreamHD[1LOU.ME].torrent 0 金币 120.06K 1183 次 1月前

#1楼
发帖时间:2024-02-25 10:56:32   |   回复数:0
游客组