Asuka601
隐世仙人♂

[更 早] [欧美] [剧情] [BD-4K] 洛奇[HDR/杜比视界双版本][国英多音轨/中英字幕].Rocky.1976.UHD.BluRay.REMUX.2160p.HEVC.DoVi.HDR.DTS-

-->

完整标题:洛奇[HDR/杜比视界双版本][国英多音轨/中英字幕].Rocky.1976.UHD.BluRay.REMUX.2160p.HEVC.DoVi.HDR.DTS-HD.MA5.1.3Audio-DreamHD 55.56GB



◎标  题 洛奇
◎译  名 洛基
◎片  名 Rocky
◎年  代 1976
◎产  地 美国
◎类  别 剧情 / 爱情 / 运动
◎语  言 英语
◎上映日期 1976-12-03(美国)
◎IMDb评分 8.1/10 (618545人评价)
◎IMDb链接 https://www.imdb.com/title/tt0075148/
◎豆瓣评分 8.8/10 (66651人评价)
◎豆瓣链接 https://movie.douban.com/subject/1295742/
◎片  长 120分钟
◎导  演 约翰·G·艾维尔森 John G. Avildsen
◎编  剧 西尔维斯特·史泰龙 Sylvester Stallone
◎演  员 西尔维斯特·史泰龙 Sylvester Stallone
      塔莉娅·夏尔 Talia Shire
      伯特·杨 Burt Young
      卡尔·韦瑟斯 Carl Weathers
      布吉斯·梅迪斯 Burgess Meredith
      斯坦·肖 Stan Shaw
      Jodi Letizia Jodi Letizia
      巴特卡斯·史泰龙 Butkus Stallone

◎简  介
    洛基•巴尔博厄(西尔维斯特•史泰龙 Sylvester Stallone 饰)是费城的过气拳击手。他空有拳击热忱,却只混杂于三流拳击赛中。一天,他对售货员艾黛丽安(塔里亚•希雷Talia Shire 饰)一见倾心,虽然这个姑娘长相一般,性格内向,却毫不阻碍洛奇对她爱得炽热。   爱情得意,事业也开始一路畅通。为了庆祝美国建国200周年,当地举办了一个拳击比赛,胜出者将获得15万美元的高额奖金。美国一个拳击巨星在比赛中受了伤,主办方选中了洛奇去上演一场“灰姑娘”式的比赛,大敌当前的同时,也是洛奇事业转机、大显身手的良机。洛奇在赛场上苦撑15回合,在面肿血流之际,会不会有奇迹的发生?

点击图片可查看大图

软字幕无法在截图上展现,HDR版本/杜比视界版本截图会出现颜色异常,请使用支持的设备播放!

##### MediaInfo ######
General
Unique ID : 124434138157489085565507276072613501696 (0x5D9D24ADE083E572B04DDC572B02DB00)
Complete name : Rocky.1976.UHD.BluRay.REMUX.2160p.HEVC.DoVi.HDR.DTS-HD.MA5.1.3Audio-DreamHD.mkv
Duration : 1 h 59 min
Overall bit rate mode : Variable
Overall bit rate : 66.5 Mb/s

Video
ID : 1
ID in the original source medium : 4113 (0x1011)
Format : HEVC
Format/Info : High Efficiency Video Coding
Format profile : Main [email protected]@High
HDR format : Dolby Vision, Version 1.0, dvhe.07.06, BL+EL+RPU, Blu-ray compatible / SMPTE ST 2086, HDR10 compatible
Codec ID : V_MPEGH/ISO/HEVC
Duration : 1 h 59 min
Bit rate : 56.9 Mb/s
Width : 3 840 pixels
Height : 2 160 pixels
Display aspect ratio : 16:9
Frame rate mode : Constant
Frame rate : 23.976 (24000/1001) FPS
Color space : YUV
Chroma subsampling : 4:2:0 (Type 2)
Bit depth : 10 bits
Bits/(Pixel*Frame) : 0.286
Stream size : 47.6 GiB (86%)
Language : English
Default : No
Forced : No
Color range : Limited
Color primaries : BT.2020
Transfer characteristics : PQ
Matrix coefficients : BT.2020 non-constant
Mastering display color primaries : Display P3
Mastering display luminance : min: 0.0050 cd/m2, max: 4000 cd/m2
Maximum Content Light Level : 3992 cd/m2
Maximum Frame-Average Light Level : 362 cd/m2
Original source medium : Blu-ray

Audio #1
ID : 2
ID in the original source medium : 4352 (0x1100)
Format : DTS XLL
Format/Info : Digital Theater Systems
Commercial name : DTS-HD Master Audio
Codec ID : A_DTS
Duration : 1 h 59 min
Bit rate mode : Variable
Bit rate : 2 315 kb/s
Channel(s) : 6 channels
Channel layout : C L R Ls Rs LFE
Sampling rate : 48.0 kHz
Frame rate : 93.750 FPS (512 SPF)
Bit depth : 16 bits
Compression mode : Lossless
Stream size : 1.93 GiB (3%)
Title : 环绕声 5.1
Language : English
Default : Yes
Forced : No
Original source medium : Blu-ray

Audio #2
ID : 3
ID in the original source medium : 4361 (0x1109)
Format : DTS XLL
Format/Info : Digital Theater Systems
Commercial name : DTS-HD Master Audio
Codec ID : A_DTS
Duration : 1 h 59 min
Bit rate mode : Variable
Bit rate : 3 456 kb/s
Channel(s) : 6 channels
Channel layout : C L R Ls Rs LFE
Sampling rate : 48.0 kHz
Frame rate : 93.750 FPS (512 SPF)
Bit depth : 24 bits
Compression mode : Lossless
Stream size : 2.89 GiB (5%)
Title : 环绕声 5.1
Language : Chinese
Default : No
Forced : No
Original source medium : Blu-ray

Audio #3
ID : 4
ID in the original source medium : 4362 (0x110A)
Format : DTS XLL
Format/Info : Digital Theater Systems
Commercial name : DTS-HD Master Audio
Codec ID : A_DTS
Duration : 1 h 59 min
Bit rate mode : Variable
Bit rate : 3 462 kb/s
Channel(s) : 6 channels
Channel layout : C L R Ls Rs LFE
Sampling rate : 48.0 kHz
Frame rate : 93.750 FPS (512 SPF)
Bit depth : 24 bits
Compression mode : Lossless
Stream size : 2.89 GiB (5%)
Title : 环绕声 5.1
Language : Chinese
Default : No
Forced : No
Original source medium : Blu-ray

Text #1
ID : 5
ID in the original source medium : 4769 (0x12A1)
Format : PGS
Codec ID : S_HDMV/PGS
Codec ID/Info : Picture based subtitle format used on BDs/HD-DVDs
Duration : 1 h 56 min
Bit rate : 38.6 kb/s
Frame rate : 0.462 FPS
Count of elements : 3218
Stream size : 32.1 MiB (0%)
Language : English
Default : Yes
Forced : No
Original source medium : Blu-ray

Text #2
ID : 6
ID in the original source medium : 4776 (0x12A8)
Format : PGS
Codec ID : S_HDMV/PGS
Codec ID/Info : Picture based subtitle format used on BDs/HD-DVDs
Duration : 1 h 57 min
Bit rate : 63.4 kb/s
Frame rate : 0.718 FPS
Count of elements : 5050
Stream size : 53.2 MiB (0%)
Language : Chinese
Default : No
Forced : No
Original source medium : Blu-ray

Text #3
ID : 7
ID in the original source medium : 4777 (0x12A9)
Format : PGS
Codec ID : S_HDMV/PGS
Codec ID/Info : Picture based subtitle format used on BDs/HD-DVDs
Duration : 1 h 57 min
Bit rate : 91.2 kb/s
Frame rate : 0.718 FPS
Count of elements : 5050
Stream size : 76.5 MiB (0%)
Language : Chinese
Default : No
Forced : No
Original source medium : Blu-ray

Text #4
ID : 8
ID in the original source medium : 4778 (0x12AA)
Format : PGS
Codec ID : S_HDMV/PGS
Codec ID/Info : Picture based subtitle format used on BDs/HD-DVDs
Duration : 1 h 57 min
Bit rate : 63.0 kb/s
Frame rate : 0.711 FPS
Count of elements : 5003
Stream size : 52.8 MiB (0%)
Language : Chinese
Default : No
Forced : No
Original source medium : Blu-ray

Text #5
ID : 9
ID in the original source medium : 4779 (0x12AB)
Format : PGS
Codec ID : S_HDMV/PGS
Codec ID/Info : Picture based subtitle format used on BDs/HD-DVDs
Duration : 1 h 57 min
Bit rate : 90.0 kb/s
Frame rate : 0.711 FPS
Count of elements : 5003
Stream size : 75.5 MiB (0%)
Language : Chinese
Default : No
Forced : No
Original source medium : Blu-ray

Menu
00:00:00.000 : en:Chapter 01
00:07:17.937 : en:Chapter 02
00:11:46.789 : en:Chapter 03
00:16:21.397 : en:Chapter 04
00:22:15.208 : en:Chapter 05
00:25:59.558 : en:Chapter 06
00:32:55.223 : en:Chapter 07
00:33:57.201 : en:Chapter 08
00:40:10.741 : en:Chapter 09
00:47:33.058 : en:Chapter 10
00:54:56.209 : en:Chapter 11
00:57:22.730 : en:Chapter 12
01:02:37.253 : en:Chapter 13
01:10:41.362 : en:Chapter 14
01:17:35.651 : en:Chapter 15
01:19:14.708 : en:Chapter 16
01:22:03.460 : en:Chapter 17
01:25:22.659 : en:Chapter 18
01:29:15.516 : en:Chapter 19
01:34:18.069 : en:Chapter 20
01:39:23.457 : en:Chapter 21
01:47:10.215 : en:Chapter 22
01:48:33.715 : en:Chapter 23
01:54:39.205 : en:Chapter 24


部分资源为软字幕,移动端推荐播放器:MxPlayer,nPlayer,infuse ,其他播放器请自行尝试。

部分资源为软字幕,电脑端推荐播放器:PotPlayer,完美解码,KMPLAYER,其他播放器请自行尝试。



1 个附件 售价 大小 下载 时间

Rocky.1976.UHD.BluRay.REMUX.2160p.HEVC.DoVi.HDR.DTS-HD.MA5.1.3Audio-DreamHD[1LOU.ME].torrent 0 金币 142.03K 1757 次 1月前

#1楼
发帖时间:2024-02-25 10:54:56   |   回复数:1
feung18
武林盟主
感謝樓主辛苦 !
1月前 #2楼
游客组