Asuka601
隐世仙人♂

[2023] [欧美] [惊悚] [BD-1080P] 盗亦有道[中文字幕].Righteous.Thieves.2023.BluRay.REMUX.1080p.AVC.DTS-HD.MA5.1-DreamHD 17

-->

完整标题:盗亦有道[中文字幕].Righteous.Thieves.2023.BluRay.REMUX.1080p.AVC.DTS-HD.MA5.1-DreamHD 17.15GB



◎标  题 盗亦有道
◎译  名 Righteous Thieves
◎片  名 Shelter
◎年  代 2023
◎产  地 美国
◎类  别 惊悚
◎语  言 英语
◎上映日期 2023-03-10(美国)
◎IMDb评分 4.1/10 (471人评价)
◎IMDb链接 https://www.imdb.com/title/tt14740118/
◎豆瓣评分 4.3/10 (211人评价)
◎豆瓣链接 https://movie.douban.com/subject/35949955/
◎片  长 91分钟
◎编  剧 Michael Corcoran Michael Corcoran
◎演  员 丽萨·维达尔 Lisa Vidal
      凯姆·吉甘戴 Cam Gigandet
      詹娜·利·奥提兹 Jaina Lee Ortiz

◎简  介
    The head of a secret organization assembles a crew to steal back artwork plundered by Nazis during World War II.

点击图片可查看大图

软字幕无法在截图上展现,HDR版本/杜比视界版本截图会出现颜色异常,请使用支持的设备播放!

##### MediaInfo ######
General
Unique ID : 117010098435734284191995135683605129638 (0x58075342C090C023804E5360EFB569A6)
Complete name : Righteous.Thieves.2023.BluRay.REMUX.1080p.AVC.DTS-HD.MA5.1-DreamHD.mkv
Duration : 1 h 31 min
Overall bit rate mode : Variable
Overall bit rate : 26.8 Mb/s

Video
ID : 1
ID in the original source medium : 4113 (0x1011)
Format : AVC
Format/Info : Advanced Video Codec
Format profile : [email protected]
Format settings : CABAC / 4 Ref Frames
Format settings, CABAC : Yes
Format settings, Reference frames : 4 frames
Codec ID : V_MPEG4/ISO/AVC
Duration : 1 h 31 min
Bit rate mode : Variable
Bit rate : 23.0 Mb/s
Maximum bit rate : 35.0 Mb/s
Width : 1 920 pixels
Height : 1 080 pixels
Display aspect ratio : 16:9
Frame rate mode : Constant
Frame rate : 23.976 (24000/1001) FPS
Standard : NTSC
Color space : YUV
Chroma subsampling : 4:2:0
Bit depth : 8 bits
Scan type : Progressive
Bits/(Pixel*Frame) : 0.462
Stream size : 14.7 GiB (86%)
Language : English
Default : No
Forced : No
Color range : Limited
Color primaries : BT.709
Transfer characteristics : BT.709
Matrix coefficients : BT.709
Original source medium : Blu-ray

Audio
ID : 2
ID in the original source medium : 4352 (0x1100)
Format : DTS XLL
Format/Info : Digital Theater Systems
Commercial name : DTS-HD Master Audio
Codec ID : A_DTS
Duration : 1 h 31 min
Bit rate mode : Variable
Bit rate : 3 629 kb/s
Channel(s) : 6 channels
Channel layout : C L R Ls Rs LFE
Sampling rate : 48.0 kHz
Frame rate : 93.750 FPS (512 SPF)
Bit depth : 24 bits
Compression mode : Lossless
Stream size : 2.32 GiB (14%)
Title : 环绕声 5.1
Language : English
Default : Yes
Forced : No
Original source medium : Blu-ray

Text #1
ID : 3
ID in the original source medium : 4608 (0x1200)
Format : PGS
Codec ID : S_HDMV/PGS
Codec ID/Info : Picture based subtitle format used on BDs/HD-DVDs
Duration : 1 h 31 min
Bit rate : 37.7 kb/s
Frame rate : 0.464 FPS
Count of elements : 2536
Stream size : 24.6 MiB (0%)
Language : English
Default : Yes
Forced : No
Original source medium : Blu-ray

Text #2
ID : 4
ID in the original source medium : 4610 (0x1202)
Format : PGS
Codec ID : S_HDMV/PGS
Codec ID/Info : Picture based subtitle format used on BDs/HD-DVDs
Duration : 1 h 28 min
Bit rate : 23.8 kb/s
Frame rate : 0.441 FPS
Count of elements : 2328
Stream size : 15.0 MiB (0%)
Language : Chinese
Default : No
Forced : No
Original source medium : Blu-ray

Text #3
ID : 5
ID in the original source medium : 4611 (0x1203)
Format : PGS
Codec ID : S_HDMV/PGS
Codec ID/Info : Picture based subtitle format used on BDs/HD-DVDs
Duration : 1 h 28 min
Bit rate : 24.1 kb/s
Frame rate : 0.441 FPS
Count of elements : 2328
Stream size : 15.2 MiB (0%)
Language : Chinese
Default : No
Forced : No
Original source medium : Blu-ray

Text #4
ID : 6
ID in the original source medium : 4612 (0x1204)
Format : PGS
Codec ID : S_HDMV/PGS
Codec ID/Info : Picture based subtitle format used on BDs/HD-DVDs
Duration : 1 h 28 min
Bit rate : 47.8 kb/s
Frame rate : 0.441 FPS
Count of elements : 2328
Stream size : 30.1 MiB (0%)
Language : Chinese
Default : No
Forced : No
Original source medium : Blu-ray

Text #5
ID : 7
ID in the original source medium : 4613 (0x1205)
Format : PGS
Codec ID : S_HDMV/PGS
Codec ID/Info : Picture based subtitle format used on BDs/HD-DVDs
Duration : 1 h 28 min
Bit rate : 48.1 kb/s
Frame rate : 0.441 FPS
Count of elements : 2328
Stream size : 30.3 MiB (0%)
Language : Chinese
Default : No
Forced : No
Original source medium : Blu-ray

Menu
00:00:00.000 : en:Chapter 01
00:08:52.532 : en:Chapter 02
00:14:21.861 : en:Chapter 03
00:20:02.075 : en:Chapter 04
00:28:03.682 : en:Chapter 05
00:33:18.997 : en:Chapter 06
00:39:51.389 : en:Chapter 07
00:45:06.662 : en:Chapter 08
00:52:25.058 : en:Chapter 09
00:58:19.496 : en:Chapter 10
01:02:49.432 : en:Chapter 11
01:06:41.747 : en:Chapter 12
01:10:58.254 : en:Chapter 13
01:14:46.482 : en:Chapter 14
01:20:26.822 : en:Chapter 15
01:26:46.075 : en:Chapter 16


部分资源为软字幕,移动端推荐播放器:MxPlayer,nPlayer,infuse ,其他播放器请自行尝试。

部分资源为软字幕,电脑端推荐播放器:PotPlayer,完美解码,KMPLAYER,其他播放器请自行尝试。



1 个附件 售价 大小 下载 时间

Righteous.Thieves.2023.BluRay.REMUX.1080p.AVC.DTS-HD.MA5.1-DreamHD[1LOU.ME].torrent 0 金币 45.94K 1638 次 1月前

#1楼
发帖时间:2024-02-25 10:52:43   |   回复数:1
feung18
武林盟主
感謝樓主辛苦 !
1月前 #2楼
游客组