Asuka601
隐世仙人♂

[更 早] [欧美] [惊悚] [BD-4K] 落水狗[HDR/杜比视界双版本][中文字幕].Reservoir.Dogs.1992.UHD.BluRay.REMUX.2160p.HEVC.DoVi.HDR.

-->

完整标题:落水狗[HDR/杜比视界双版本][中文字幕].Reservoir.Dogs.1992.UHD.BluRay.REMUX.2160p.HEVC.DoVi.HDR.DTS-HD.MA5.1-DreamHD 56.02GB



◎标  题 落水狗
◎译  名 霸道横行(台) / 水库狗
◎片  名 Reservoir Dogs
◎年  代 1992
◎产  地 美国
◎类  别 惊悚 / 犯罪
◎语  言 英语
◎上映日期 1992-01-21(圣丹斯电影节) / 1992-10-08(美国)
◎IMDb评分 8.3/10 (1069683人评价)
◎IMDb链接 https://www.imdb.com/title/tt0105236/
◎豆瓣评分 8.4/10 (212826人评价)
◎豆瓣链接 https://movie.douban.com/subject/1299603/
◎片  长 99分钟
◎导  演 昆汀·塔伦蒂诺 Quentin Tarantino
◎编  剧 昆汀·塔伦蒂诺 Quentin Tarantino
      罗杰·阿夫瑞 Roger Avary
◎演  员 哈威·凯特尔 Harvey Keitel
      蒂姆·罗斯 Tim Roth
      迈克尔·马德森 Michael Madsen
      克里斯·潘 Chris Penn
      史蒂夫·布西密 Steve Buscemi
      昆汀·塔伦蒂诺 Quentin Tarantino
      兰迪·布鲁克斯 Randy Brooks
      大卫·斯廷 David Steen
      劳伦斯·班德 Lawrence Bender
      爱德华·邦克 Edward Bunker
      布尔·斯蒂尔斯 Burr Steers
      劳伦斯·蒂尔尼 Lawrence Tierney
      史蒂夫·赖特 Steven Wright
      柯克·鲍兹 Kirk Baltz
      布拉德·雅各布维茨 Brad Jacobowitz

◎简  介
    黑帮老大乔·卡伯特(劳伦斯·蒂尔尼 饰)和他的儿子“好家伙”艾迪(克里斯·佩恩 饰)召集了六名强盗,准备到珠宝店抢劫一批天然钻石。这六个人彼此各不相识,甚至连对方的姓名都无从得知。乔为了保持机密,以颜色作为代号分别给六人起名为白先生(哈维·凯特尔 饰)、橙先生(蒂姆·罗思 饰)、金先生(迈克尔·马德森 饰)、粉先生(史蒂夫·布斯塞米 饰)、棕先生和蓝先生,并规定他们之间不能透露任何私事。   抢劫时,六人中了警察的埋伏,蓝先生和棕先生当场死亡。白先生带着身受重伤的橙先生回到预定的聚集地——一个仓库。一会儿,粉先生、“好家伙”艾迪和金先生也来到这里,并活捉了一名警察。几人回忆案发时的情景,得出结论,六人中必定有人向警察告密。为了揪出告密者,大家审问拷打那个警察,仍然无法得知事实真相。本就互不了解的几个人,开始互相猜忌,事情的发展完全偏离了预设的轨道。

点击图片可查看大图

软字幕无法在截图上展现,HDR版本/杜比视界版本截图会出现颜色异常,请使用支持的设备播放!

##### MediaInfo ######
General
Unique ID : 23717877938330163567612242734840744159 (0x11D7E5AA90CDE2C6DF11C6D55EDB08DF)
Complete name : Reservoir.Dogs.1992.UHD.BluRay.REMUX.2160p.HEVC.DoVi.HDR.DTS-HD.MA5.1-DreamHD.mkv
Duration : 1 h 39 min
Overall bit rate mode : Variable
Overall bit rate : 80.7 Mb/s

Video
ID : 1
ID in the original source medium : 4113 (0x1011)
Format : HEVC
Format/Info : High Efficiency Video Coding
Format profile : Main [email protected]@High
HDR format : Dolby Vision, Version 1.0, dvhe.07.06, BL+EL+RPU, Blu-ray compatible / SMPTE ST 2086, HDR10 compatible
Codec ID : V_MPEGH/ISO/HEVC
Duration : 1 h 39 min
Bit rate : 76.3 Mb/s
Width : 3 840 pixels
Height : 2 160 pixels
Display aspect ratio : 16:9
Frame rate mode : Constant
Frame rate : 23.976 (24000/1001) FPS
Color space : YUV
Chroma subsampling : 4:2:0 (Type 2)
Bit depth : 10 bits
Bits/(Pixel*Frame) : 0.384
Stream size : 53.0 GiB (95%)
Language : English
Default : No
Forced : No
Color range : Limited
Color primaries : BT.2020
Transfer characteristics : PQ
Matrix coefficients : BT.2020 non-constant
Mastering display color primaries : Display P3
Mastering display luminance : min: 0.0050 cd/m2, max: 4000 cd/m2
Original source medium : Blu-ray

Audio
ID : 2
ID in the original source medium : 4354 (0x1102)
Format : DTS XLL
Format/Info : Digital Theater Systems
Commercial name : DTS-HD Master Audio
Codec ID : A_DTS
Duration : 1 h 39 min
Bit rate mode : Variable
Bit rate : 3 818 kb/s
Channel(s) : 6 channels
Channel layout : C L R Ls Rs LFE
Sampling rate : 48.0 kHz
Frame rate : 93.750 FPS (512 SPF)
Bit depth : 24 bits
Compression mode : Lossless
Stream size : 2.65 GiB (5%)
Title : 环绕声 5.1
Language : English
Default : Yes
Forced : No
Original source medium : Blu-ray

Text #1
ID : 3
ID in the original source medium : 4769 (0x12A1)
Format : PGS
Codec ID : S_HDMV/PGS
Codec ID/Info : Picture based subtitle format used on BDs/HD-DVDs
Duration : 1 h 38 min
Bit rate : 94.1 kb/s
Frame rate : 0.678 FPS
Count of elements : 4025
Stream size : 66.6 MiB (0%)
Language : Chinese
Default : Yes
Forced : No
Original source medium : Blu-ray

Text #2
ID : 4
ID in the original source medium : 4770 (0x12A2)
Format : PGS
Codec ID : S_HDMV/PGS
Codec ID/Info : Picture based subtitle format used on BDs/HD-DVDs
Duration : 1 h 38 min
Bit rate : 63.2 kb/s
Frame rate : 0.678 FPS
Count of elements : 4025
Stream size : 44.7 MiB (0%)
Language : Chinese
Default : No
Forced : No
Original source medium : Blu-ray

Text #3
ID : 5
ID in the original source medium : 4771 (0x12A3)
Format : PGS
Codec ID : S_HDMV/PGS
Codec ID/Info : Picture based subtitle format used on BDs/HD-DVDs
Duration : 1 h 35 min
Bit rate : 62.9 kb/s
Frame rate : 0.561 FPS
Count of elements : 3201
Stream size : 42.8 MiB (0%)
Language : Chinese
Default : No
Forced : No
Original source medium : Blu-ray

Text #4
ID : 6
ID in the original source medium : 4772 (0x12A4)
Format : PGS
Codec ID : S_HDMV/PGS
Codec ID/Info : Picture based subtitle format used on BDs/HD-DVDs
Duration : 1 h 35 min
Bit rate : 35.8 kb/s
Frame rate : 0.561 FPS
Count of elements : 3201
Stream size : 24.4 MiB (0%)
Language : Chinese
Default : No
Forced : No
Original source medium : Blu-ray

Text #5
ID : 7
ID in the original source medium : 4773 (0x12A5)
Format : PGS
Codec ID : S_HDMV/PGS
Codec ID/Info : Picture based subtitle format used on BDs/HD-DVDs
Duration : 1 h 38 min
Bit rate : 92.7 kb/s
Frame rate : 0.669 FPS
Count of elements : 3970
Stream size : 65.6 MiB (0%)
Language : Chinese
Default : No
Forced : No
Original source medium : Blu-ray

Text #6
ID : 8
ID in the original source medium : 4774 (0x12A6)
Format : PGS
Codec ID : S_HDMV/PGS
Codec ID/Info : Picture based subtitle format used on BDs/HD-DVDs
Duration : 1 h 38 min
Bit rate : 61.5 kb/s
Frame rate : 0.669 FPS
Count of elements : 3970
Stream size : 43.6 MiB (0%)
Language : Chinese
Default : No
Forced : No
Original source medium : Blu-ray

Text #7
ID : 9
ID in the original source medium : 4775 (0x12A7)
Format : PGS
Codec ID : S_HDMV/PGS
Codec ID/Info : Picture based subtitle format used on BDs/HD-DVDs
Duration : 1 h 35 min
Bit rate : 60.7 kb/s
Frame rate : 0.551 FPS
Count of elements : 3142
Stream size : 41.3 MiB (0%)
Language : Chinese
Default : No
Forced : No
Original source medium : Blu-ray

Text #8
ID : 10
ID in the original source medium : 4776 (0x12A8)
Format : PGS
Codec ID : S_HDMV/PGS
Codec ID/Info : Picture based subtitle format used on BDs/HD-DVDs
Duration : 1 h 35 min
Bit rate : 33.7 kb/s
Frame rate : 0.551 FPS
Count of elements : 3142
Stream size : 22.9 MiB (0%)
Language : Chinese
Default : No
Forced : No
Original source medium : Blu-ray

Menu
00:00:00.000 : en:Chapter 01
00:08:04.484 : en:Chapter 02
00:20:41.240 : en:Chapter 03
00:26:47.606 : en:Chapter 04
00:38:03.281 : en:Chapter 05
00:47:35.853 : en:Chapter 06
00:55:21.318 : en:Chapter 07
01:04:05.842 : en:Chapter 08
01:14:41.477 : en:Chapter 09
01:20:02.798 : en:Chapter 10
01:27:20.235 : en:Chapter 11


部分资源为软字幕,移动端推荐播放器:MxPlayer,nPlayer,infuse ,其他播放器请自行尝试。

部分资源为软字幕,电脑端推荐播放器:PotPlayer,完美解码,KMPLAYER,其他播放器请自行尝试。



1 个附件 售价 大小 下载 时间

Reservoir.Dogs.1992.UHD.BluRay.REMUX.2160p.HEVC.DoVi.HDR.DTS-HD.MA5.1-Dream..[1LOU.ME].torrent 0 金币 143.15K 1950 次 1月前

#1楼
发帖时间:2024-02-25 10:49:04   |   回复数:1
feung18
武林盟主
感謝樓主辛苦 !
1月前 #2楼
游客组