Asuka601
隐世仙人♂

[2020] [欧美] [剧情] [BD-1080P] 私聊[中文字幕].PVT.CHAT.2020.BluRay.REMUX.1080p.AVC.DTS-HD.MA5.1-DreamHD 20.32GB

-->

完整标题:私聊[中文字幕].PVT.CHAT.2020.BluRay.REMUX.1080p.AVC.DTS-HD.MA5.1-DreamHD 20.32GB



◎标  题 私聊
◎片  名 PVT CHAT
◎年  代 2020
◎产  地 美国
◎类  别 剧情
◎语  言 英语
◎上映日期 2020-08-21(加拿大奇幻电影节) / 2021-02-09(美国网络)
◎IMDb评分 5.9/10 (1635人评价)
◎IMDb链接 https://www.imdb.com/title/tt8110004/
◎豆瓣评分 5.9/10 (256人评价)
◎豆瓣链接 https://movie.douban.com/subject/30257323/
◎片  长 86分钟
◎导  演 本·霍齐 Ben Hozie
◎演  员 彼得·瓦克 Peter Vack
      茱莉娅·福克斯 Julia Fox
      巴迪·杜瑞斯 Buddy Duress
      基思·普尔森 Keith Poulson
      罗伯特·西林帕格利亚 Robert Sciglimpaglia
      大卫·J·怀特 David J. White
      Atticus Cain Atticus Cain

◎简  介
    Jack (Peter Vack) is an internet gambler living in NYC. After the death of his roommate, he becomes fixated on Scarlet (Julia Fox) - a cam girl from San Francisco. His obsession reaches a boiling point when fantasy materializes in reality and Jack sees Scarlet on a rainy Chinatown street.

点击图片可查看大图

软字幕无法在截图上展现,HDR版本/杜比视界版本截图会出现颜色异常,请使用支持的设备播放!

##### MediaInfo ######
General
Unique ID : 213257295617198556558980983101083949962 (0xA06FDC743FC467F527AE4524A43D1B8A)
Complete name : PVT.CHAT.2020.BluRay.REMUX.1080p.AVC.DTS-HD.MA5.1-DreamHD.mkv
Duration : 1 h 25 min
Overall bit rate mode : Variable
Overall bit rate : 33.9 Mb/s

Video
ID : 1
ID in the original source medium : 4113 (0x1011)
Format : AVC
Format/Info : Advanced Video Codec
Format profile : [email protected]
Format settings : CABAC / 3 Ref Frames
Format settings, CABAC : Yes
Format settings, Reference frames : 3 frames
Codec ID : V_MPEG4/ISO/AVC
Duration : 1 h 25 min
Bit rate mode : Variable
Bit rate : 29.9 Mb/s
Maximum bit rate : 35.0 Mb/s
Width : 1 920 pixels
Height : 1 080 pixels
Display aspect ratio : 16:9
Frame rate mode : Constant
Frame rate : 23.976 (24000/1001) FPS
Standard : NTSC
Color space : YUV
Chroma subsampling : 4:2:0
Bit depth : 8 bits
Scan type : Progressive
Bits/(Pixel*Frame) : 0.602
Stream size : 17.9 GiB (88%)
Language : English
Default : No
Forced : No
Color range : Limited
Color primaries : BT.709
Transfer characteristics : BT.709
Matrix coefficients : BT.709
Original source medium : Blu-ray

Audio
ID : 2
ID in the original source medium : 4352 (0x1100)
Format : DTS XLL
Format/Info : Digital Theater Systems
Commercial name : DTS-HD Master Audio
Codec ID : A_DTS
Duration : 1 h 25 min
Bit rate mode : Variable
Bit rate : 3 622 kb/s
Channel(s) : 6 channels
Channel layout : C L R Ls Rs LFE
Sampling rate : 48.0 kHz
Frame rate : 93.750 FPS (512 SPF)
Bit depth : 24 bits
Compression mode : Lossless
Stream size : 2.17 GiB (11%)
Title : 环绕声 5.1
Language : English
Default : Yes
Forced : No
Original source medium : Blu-ray

Text #1
ID : 3
ID in the original source medium : 4608 (0x1200)
Format : PGS
Codec ID : S_HDMV/PGS
Codec ID/Info : Picture based subtitle format used on BDs/HD-DVDs
Duration : 1 h 25 min
Bit rate : 36.3 kb/s
Frame rate : 0.734 FPS
Count of elements : 3774
Stream size : 22.2 MiB (0%)
Language : English
Default : Yes
Forced : No
Original source medium : Blu-ray

Text #2
ID : 4
ID in the original source medium : 4609 (0x1201)
Format : PGS
Codec ID : S_HDMV/PGS
Codec ID/Info : Picture based subtitle format used on BDs/HD-DVDs
Duration : 1 h 24 min
Bit rate : 55.5 kb/s
Frame rate : 0.623 FPS
Count of elements : 3168
Stream size : 33.6 MiB (0%)
Language : Chinese
Default : No
Forced : No
Original source medium : Blu-ray

Text #3
ID : 5
ID in the original source medium : 4610 (0x1202)
Format : PGS
Codec ID : S_HDMV/PGS
Codec ID/Info : Picture based subtitle format used on BDs/HD-DVDs
Duration : 1 h 24 min
Bit rate : 54.8 kb/s
Frame rate : 0.623 FPS
Count of elements : 3168
Stream size : 33.2 MiB (0%)
Language : Chinese
Default : No
Forced : No
Original source medium : Blu-ray

Text #4
ID : 6
ID in the original source medium : 4611 (0x1203)
Format : PGS
Codec ID : S_HDMV/PGS
Codec ID/Info : Picture based subtitle format used on BDs/HD-DVDs
Duration : 1 h 24 min
Bit rate : 100 kb/s
Frame rate : 0.624 FPS
Count of elements : 3169
Stream size : 60.9 MiB (0%)
Language : Chinese
Default : No
Forced : No
Original source medium : Blu-ray

Text #5
ID : 7
ID in the original source medium : 4612 (0x1204)
Format : PGS
Codec ID : S_HDMV/PGS
Codec ID/Info : Picture based subtitle format used on BDs/HD-DVDs
Duration : 1 h 24 min
Bit rate : 99.7 kb/s
Frame rate : 0.624 FPS
Count of elements : 3169
Stream size : 60.4 MiB (0%)
Language : Chinese
Default : No
Forced : No
Original source medium : Blu-ray

Menu
00:00:00.000 : en:章节 01
00:14:06.470 : en:章节 02
00:29:56.503 : en:章节 03
00:40:25.381 : en:章节 04
00:53:13.481 : en:章节 05
01:08:54.713 : en:章节 06
01:16:57.779 : en:章节 07
01:24:06.291 : en:章节 08


部分资源为软字幕,移动端推荐播放器:MxPlayer,nPlayer,infuse ,其他播放器请自行尝试。

部分资源为软字幕,电脑端推荐播放器:PotPlayer,完美解码,KMPLAYER,其他播放器请自行尝试。



1 个附件 售价 大小 下载 时间

PVT.CHAT.2020.BluRay.REMUX.1080p.AVC.DTS-HD.MA5.1-DreamHD[1LOU.ME].torrent 0 金币 53.86K 1414 次 1月前

#1楼
发帖时间:2024-02-25 10:47:53   |   回复数:0
游客组