Asuka601
隐世仙人♂

[2022] [欧美] [喜剧] [BD-4K] 穿靴子的猫2[国英多音轨/中文字幕/特效字幕].2022.V2.UHD.BluRay.REMUX.2160p.HEVC.HDR.Atmos.TrueHD7.1.

-->

完整标题:穿靴子的猫2[国英多音轨/中文字幕/特效字幕].2022.V2.UHD.BluRay.REMUX.2160p.HEVC.HDR.Atmos.TrueHD7.1.3Audio-DreamHD 47.50GB



◎标  题 穿靴子的猫2
◎译  名 无敌猫剑侠2 / 鞋猫剑客2(台) / 无敌猫剑侠:8+1条命(港) / 穿靴子的猫2:九条命和四十大盗 / 穿靴子的猫:最后的愿望 / Puss in Boots 2: Nine Lives & 40 Thieves
◎片  名 Puss in Boots: The Last Wish
◎年  代 2022
◎产  地 美国
◎类  别 喜剧 / 爱情 / 动画 / 悬疑 / 歌舞 / 奇幻 / 冒险
◎语  言 英语 / 西班牙语
◎上映日期 2022-12-23(中国大陆) / 2022-12-07(法国) / 2022-12-21(美国)
◎IMDb评分 7.8/10 (165212人评价)
◎IMDb链接 https://www.imdb.com/title/tt3915174/
◎豆瓣评分 8.1/10 (94435人评价)
◎豆瓣链接 https://movie.douban.com/subject/25868125/
◎片  长 102分钟
◎导  演 乔尔·克劳福德 Joel Crawford
      贾努埃尔·梅尔卡多 Januel Mercado
◎编  剧 汤米·斯威德洛 Tommy Swerdlow
      汤姆·惠勒 Tom Wheeler
      保罗·费舍尔 Paul Fisher
      克里斯托弗·梅勒丹德利 Christopher Meledandri
◎演  员 安东尼奥·班德拉斯 Antonio Banderas
      萨尔玛·海耶克 Salma Hayek
      哈维·吉兰 Harvey Guillen
      弗洛伦丝·皮尤 Florence Pugh
      约翰·木兰尼 John Mulaney
      瓦格纳·马拉 Wagner Moura
      雷·温斯顿 Ray Winstone
      萨姆森·卡约 Samson Kayo
      奥利维娅·科尔曼 Olivia Colman
      达明·乔伊·伦道夫 Da'Vine Joy Randolph
      安东尼·门德斯 Anthony Mendez
      科迪·卡梅伦 Cody Cameron
      乔尔·克劳福德 Joel Crawford
      娜塔莉亚·克朗博尔德 Natalia Cronembold
      保罗·费舍尔 Paul Fisher
      贾努埃尔·梅尔卡多 Januel Mercado
      亚提米丝·帕博达尼 Artemis Pebdani
      詹姆斯·雷恩 James Ryan
      贝琪·索达罗 Betsy Sodaro
      康拉德·弗农 Conrad Vernon
      凯莉·艾莉莎·弗拉纳根 Kaley Alyssa Flanagan
      克里斯·米勒 Chris Miller

◎简  介
    时隔11年,臭屁自大又爱卖萌的猫大侠回来了!如今的猫大侠(安东尼奥·班德拉斯 配音),依旧幽默潇洒又不拘小节、数次“花式送命”后,九条命如今只剩一条,于是不得不请求自己的老搭档兼“宿敌”——迷人的软爪妞(萨尔玛·海耶克 配音)来施以援手来恢复自己的九条生命。

点击图片可查看大图

软字幕无法在截图上展现,HDR版本/杜比视界版本截图会出现颜色异常,请使用支持的设备播放!

##### MediaInfo ######
General
Unique ID : 310196145049522659687789750715746999397 (0xE95D9ABC7A33FA0F8397DD7AB671DC65)
Complete name : Puss.in.Boots.The.Last.Wish.2022.V2.UHD.BluRay.REMUX.2160p.HEVC.HDR.Atmos.TrueHD7.1.3Audio-DreamHD.mkv
Duration : 1 h 42 min
Overall bit rate mode : Variable
Overall bit rate : 66.4 Mb/s

Video
ID : 1
ID in the original source medium : 4113 (0x1011)
Format : HEVC
Format/Info : High Efficiency Video Coding
Format profile : Main [email protected]@High
HDR format : SMPTE ST 2086, HDR10 compatible
Codec ID : V_MPEGH/ISO/HEVC
Duration : 1 h 42 min
Bit rate : 52.1 Mb/s
Width : 3 840 pixels
Height : 2 160 pixels
Display aspect ratio : 16:9
Frame rate mode : Constant
Frame rate : 23.976 (24000/1001) FPS
Color space : YUV
Chroma subsampling : 4:2:0 (Type 2)
Bit depth : 10 bits
Bits/(Pixel*Frame) : 0.262
Stream size : 37.3 GiB (78%)
Language : English
Default : No
Forced : No
Color range : Limited
Color primaries : BT.2020
Transfer characteristics : PQ
Matrix coefficients : BT.2020 non-constant
Mastering display color primaries : Display P3
Mastering display luminance : min: 0.0050 cd/m2, max: 1000 cd/m2
Maximum Content Light Level : 975 cd/m2
Maximum Frame-Average Light Level : 276 cd/m2
Original source medium : Blu-ray
SEI_rbsp_stop_one_bit : Missing

Audio #1
ID : 2
ID in the original source medium : 4352 (0x1100)
Format : MLP FBA 16-ch
Format/Info : Meridian Lossless Packing FBA with 16-channel presentation
Commercial name : Dolby TrueHD with Dolby Atmos
Codec ID : A_TRUEHD
Duration : 1 h 42 min
Bit rate mode : Variable
Bit rate : 3 095 kb/s
Maximum bit rate : 5 115 kb/s
Channel(s) : 8 channels
Channel layout : L R C LFE Ls Rs Lb Rb
Sampling rate : 48.0 kHz
Frame rate : 1 200.000 FPS (40 SPF)
Bit depth : 24 bits
Compression mode : Lossless
Stream size : 2.21 GiB (5%)
Title : 环绕声 7.1
Language : English
Default : Yes
Forced : No
Original source medium : Blu-ray
Number of dynamic objects : 11
Bed channel count : 1 channel
Bed channel configuration : LFE

Audio #2
ID : 3
ID in the original source medium : 4353 (0x1101)
Format : MLP FBA 16-ch
Format/Info : Meridian Lossless Packing FBA with 16-channel presentation
Commercial name : Dolby TrueHD with Dolby Atmos
Codec ID : A_TRUEHD
Duration : 1 h 42 min
Bit rate mode : Variable
Bit rate : 4 035 kb/s
Maximum bit rate : 5 568 kb/s
Channel(s) : 8 channels
Channel layout : L R C LFE Ls Rs Lb Rb
Sampling rate : 48.0 kHz
Frame rate : 1 200.000 FPS (40 SPF)
Bit depth : 24 bits
Compression mode : Lossless
Stream size : 2.88 GiB (6%)
Title : 环绕声 7.1
Language : Chinese
Default : No
Forced : No
Original source medium : Blu-ray
Number of dynamic objects : 11
Bed channel count : 1 channel
Bed channel configuration : LFE

Audio #3
ID : 4
ID in the original source medium : 4354 (0x1102)
Format : DTS XLL X
Format/Info : Digital Theater Systems
Commercial name : DTS-HD Master Audio
Codec ID : A_DTS
Duration : 1 h 42 min
Bit rate mode : Variable
Bit rate : 6 495 kb/s
Channel(s) : 8 channels
Channel(s)_Original : Object Based
ChannelLayout_Original : Object Based
Sampling rate : 48.0 kHz
Frame rate : 93.750 FPS (512 SPF)
Bit depth : 24 bits
Stream size : 4.64 GiB (10%)
Title : 环绕声 7.1
Language : Chinese
Default : No
Forced : No
Original source medium : Blu-ray

Text #1
ID : 5
ID in the original source medium : 4768 (0x12A0)
Format : PGS
Codec ID : S_HDMV/PGS
Codec ID/Info : Picture based subtitle format used on BDs/HD-DVDs
Duration : 1 h 40 min
Bit rate : 50.4 kb/s
Frame rate : 0.643 FPS
Count of elements : 3896
Stream size : 36.4 MiB (0%)
Language : English
Default : Yes
Forced : No
Original source medium : Blu-ray

Text #2
ID : 6
ID in the original source medium : 4769 (0x12A1)
Format : PGS
Codec ID : S_HDMV/PGS
Codec ID/Info : Picture based subtitle format used on BDs/HD-DVDs
Duration : 1 h 42 min
Bit rate : 144 kb/s
Frame rate : 1.160 FPS
Count of elements : 7103
Stream size : 105 MiB (0%)
Language : Chinese
Default : No
Forced : No
Original source medium : Blu-ray

Text #3
ID : 7
ID in the original source medium : 4770 (0x12A2)
Format : PGS
Codec ID : S_HDMV/PGS
Codec ID/Info : Picture based subtitle format used on BDs/HD-DVDs
Duration : 1 h 42 min
Bit rate : 145 kb/s
Frame rate : 1.160 FPS
Count of elements : 7103
Stream size : 106 MiB (0%)
Language : Chinese
Default : No
Forced : No
Original source medium : Blu-ray

Text #4
ID : 8
ID in the original source medium : 4771 (0x12A3)
Format : PGS
Codec ID : S_HDMV/PGS
Codec ID/Info : Picture based subtitle format used on BDs/HD-DVDs
Duration : 1 h 42 min
Bit rate : 168 kb/s
Frame rate : 1.001 FPS
Count of elements : 6131
Stream size : 122 MiB (0%)
Language : Chinese
Default : No
Forced : No
Original source medium : Blu-ray

Text #5
ID : 9
ID in the original source medium : 4772 (0x12A4)
Format : PGS
Codec ID : S_HDMV/PGS
Codec ID/Info : Picture based subtitle format used on BDs/HD-DVDs
Duration : 1 h 42 min
Bit rate : 170 kb/s
Frame rate : 1.001 FPS
Count of elements : 6131
Stream size : 124 MiB (0%)
Language : Chinese
Default : No
Forced : No
Original source medium : Blu-ray

Menu
00:00:00.000 : en:Chapter 01
00:08:42.355 : en:Chapter 02
00:12:38.215 : en:Chapter 03
00:16:33.075 : en:Chapter 04
00:21:20.320 : en:Chapter 05
00:28:56.901 : en:Chapter 06
00:32:42.210 : en:Chapter 07
00:37:15.816 : en:Chapter 08
00:40:22.169 : en:Chapter 09
00:44:59.446 : en:Chapter 10
00:50:21.560 : en:Chapter 11
00:56:20.251 : en:Chapter 12
01:01:56.921 : en:Chapter 13
01:05:25.046 : en:Chapter 14
01:09:12.064 : en:Chapter 15
01:13:24.483 : en:Chapter 16
01:18:46.680 : en:Chapter 17
01:23:24.833 : en:Chapter 18
01:27:32.163 : en:Chapter 19
01:33:43.659 : en:Chapter 20


部分资源为软字幕,移动端推荐播放器:MxPlayer,nPlayer,infuse ,其他播放器请自行尝试。

部分资源为软字幕,电脑端推荐播放器:PotPlayer,完美解码,KMPLAYER,其他播放器请自行尝试。



1 个附件 售价 大小 下载 时间

2022.V2.UHD.BluRay.REMUX.2160p.HEVC.HDR.Atmos.TrueHD7.1.3Audio-DreamHD[1LOU.ME].torrent 0 金币 121.89K 2723 次 1月前

#1楼
发帖时间:2024-02-25 10:46:43   |   回复数:2
feung18
武林盟主
感謝樓主辛苦 !
1月前 #2楼
JYLin26
一派掌门
Thanks
1月前 #3楼
游客组