Asuka601
隐世仙人♂

[2018] [大陆] [动作] [WEB-4K] 黄金兄弟[60帧率版本][国语音轨/中文字幕].Golden.Job.2018.60FPS.2160p.WEB-DL.H265.10bit.AAC-GPTHD

-->

完整标题:黄金兄弟[60帧率版本][国语音轨/中文字幕].Golden.Job.2018.60FPS.2160p.WEB-DL.H265.10bit.AAC-GPTHD 17.40GB



◎标  题 黄金兄弟
◎译  名 黄金七十二小时 / 新古惑仔 / 新版古惑仔 / Golden Job
◎年  代 2018
◎产  地 中国大陆
◎类  别 动作 / 犯罪
◎语  言 粤语 / 汉语普通话
◎上映日期 2018-09-21(中国大陆) / 2018-09-20(中国香港)
◎IMDb评分 5.6/10 (1357人评价)
◎IMDb链接 https://www.imdb.com/title/tt7521990/
◎豆瓣评分 5.0/10 (48795人评价)
◎豆瓣链接 https://movie.douban.com/subject/27069427/
◎片  长 99分钟
◎导  演 钱嘉乐 Kar Lok Chin
◎编  剧 金东圭 Dong-kyu Kim
      郭建乐 Kin-Lok Kwok
      李敏 Erica Li
      麦曦茵 Heiward Mak
      陈淑贤 Susan Chan
      张之彦 Chi Yin Cheung
      钱嘉乐 Kar Lok Chin
◎演  员 郑伊健 Ekin Cheng
      陈小春 Jordan Chan
      谢天华 Michael Tse
      钱嘉乐 Kar Lok Chin
      林晓峰 Jerry Lamb
      曾志伟 Eric Tsang
      佘诗曼 Charmaine Sheh
      雅玫 Yamei Zhang
      吴永伦 Alan Ng
      仓田保昭 Yasuaki Kurata
      岑珈其 Kaki Sham
      周比利 Billy Chow
      杨恭如 Kristy Yang
      舒淇 Qi Shu
      刘伟强 Andrew Lau
      张宇 Phil Chang
      纪焕博 Rock Ji
      蒋中炜 Zhongwei Jiang
      魏允熙 Yunxi Wei
      黄伟辉 Wong Wai-Fai
      瑟吉·诺普科 Sergej Onopko
      比约恩·弗赖贝格 Björn Freiberg
      亚历克斯·皮希汀 Alex Pychtin
      李宗彥 Jason Li
      今井龙惺 Ryusei Imai
      保罗·菲利普·克拉克 Paul Philip Clark
      马铁摩 Temur Mamisashvili
      朱薇彤 Wei-tong Jhu
      弗雷德里克·叶德斯特罗姆 Fredrik Yderström
      大卫·托罗克 David Torok
      莱安德罗·梅厄·马丁内斯 Leandro Mayor Martinez
      舍米奎维尔·拉菲塔 Semiquaver Iafeta
      大卫·约翰逊·伍德 David Johnson Wood
      佐格赛坎·纳兰索格特 Tsogtsaikan Narantsogt
      马蒂厄·雅克 Mathieu Jaquet
      科萨巴·戈兹托尼 Csaba Gosztonyi

◎简  介
    狮王(郑伊健 饰)、火山(陈小春 饰)、Bill(谢天华 饰)、淡定(钱嘉乐 饰)、老鼠(林晓峰 饰)五个出生入死的兄弟,在恩师曹sir(曾志伟 饰)的带领下,为了救济儿童而偷取特效药,却惨遭设局,陷入枪林弹雨的险境之中。兄弟们抱着视死如归的豪情,展开一连串的追查与激战。他们明白,即使无法活着回来,也比一人活着痛快!

点击图片可查看大图

软字幕无法在截图上展现,HDR版本/杜比视界版本截图会出现颜色异常,请使用支持的设备播放!

##### MediaInfo ######
General
Complete name : 黄金兄弟.Golden.Job.2018.60FPS.2160p.WEB-DL.H265.10bit.AAC-GPTHD.mp4
Duration : 1 h 39 min
Overall bit rate : 25.1 Mb/s

Video
ID : 1
Format : HEVC
Format/Info : High Efficiency Video Coding
Format profile : Main [email protected]@Main
Codec ID : hev1
Codec ID/Info : High Efficiency Video Coding
Duration : 1 h 39 min
Bit rate : 24.9 Mb/s
Width : 3 840 pixels
Height : 1 608 pixels
Display aspect ratio : 2.40:1
Frame rate mode : Variable
Frame rate : 60.000 FPS
Minimum frame rate : 59.960 FPS
Maximum frame rate : 60.040 FPS
Color space : YUV
Chroma subsampling : 4:2:0
Bit depth : 10 bits
Bits/(Pixel*Frame) : 0.067
Stream size : 17.3 GiB (99%)
Color range : Limited
Color primaries : BT.709
Transfer characteristics : BT.709
Matrix coefficients : BT.709
Codec configuration box : hvcC

Audio
ID : 2
Format : AAC LC
Format/Info : Advanced Audio Codec Low Complexity
Codec ID : mp4a-40-2
Duration : 1 h 39 min
Bit rate mode : Constant
Bit rate : 192 kb/s
Channel(s) : 2 channels
Channel layout : L R
Sampling rate : 44.1 kHz
Frame rate : 43.066 FPS (1024 SPF)
Compression mode : Lossy
Stream size : 136 MiB (1%)
Default : Yes
Alternate group : 1


部分资源为软字幕,移动端推荐播放器:MxPlayer,nPlayer,infuse ,其他播放器请自行尝试。

部分资源为软字幕,电脑端推荐播放器:PotPlayer,完美解码,KMPLAYER,其他播放器请自行尝试。



1 个附件 售价 大小 下载 时间

Golden.Job.2018.60FPS.2160p.WEB-DL.H265.10bit.AAC-GPTHD[1LOU.ME].torrent 0 金币 46.60K 1687 次 1月前

#1楼
发帖时间:2024-02-25 09:20:41   |   回复数:3
亚瑟王
一派掌门
谢谢楼主分享
1月前 #2楼
feung18
武林盟主
感謝樓主辛苦 !
1月前 #3楼
liyouchai
隐世仙人♂
谢谢楼主分享资源
1月前 #4楼
游客组