Asuka601
隐世仙人♂

[更 早] [香港] [剧情] [WEB-1080P] 金毛狮王[国语配音/中文字幕].The.Golden.Lion.1975.1080p.WEB-DL.H265.AAC-DreamHD 1.47GB

-->

完整标题:金毛狮王[国语配音/中文字幕].The.Golden.Lion.1975.1080p.WEB-DL.H265.AAC-DreamHD 1.47GB



◎标  题 金毛狮王
◎译  名 The Golden Lion
◎片  名 金毛獅王
◎年  代 1975
◎产  地 中国香港
◎类  别 剧情 / 动作
◎语  言 汉语普通话
◎上映日期 1975-12-21(中国香港)
◎IMDb评分 6.3/10 (71人评价)
◎IMDb链接 https://www.imdb.com/title/tt0073056/
◎豆瓣评分 6.3/10 (329人评价)
◎豆瓣链接 https://movie.douban.com/subject/1760625/
◎片  长 83分钟
◎导  演 何梦华 Meng Hua Ho
◎编  剧 江扬 Yang Chiang
◎演  员 李菁 Ching Lee
      赵雄 Chiao Hsiung
      王侠 Hsieh Wang
      南宫勋 James Nam
      詹森 Shen Chan
      李笑丛 Hsiao Chung Li
      李文洲 Wen-Chou Li
      曾楚霖 Choh-Lam Tsang
      元彬 Bun Yuen
      房勉 Mien Fang
      罗汉 Han Lo
      王清河 Ching-Ho Wang

◎简  介
    本片的金毛狮王与金庸《倚天屠龙记》小说人物无关,导演为何梦华,编剧是江阳。故事描述,侠盗金毛狮戴逍遥(赵雄),武功高强,为血衣帮主汪劲草(王侠)所忌,一夜戴雨夜归家途上,遭汪率徒众突袭,胸部中五毒神砂掌,只好突围逃亡;戴原已患恶疾,现又告受 伤,幸遇太湖七狮,送往神医吕伯景(房勉)处救治;吕决定与儿子文业(南宫勋)、女儿文芳(李菁),携戴赴回魂谷采七叶青莲治恶疾,惟期间遭汪追杀,险象横生……

点击图片可查看大图

软字幕无法在截图上展现,HDR版本/杜比视界版本截图会出现颜色异常,请使用支持的设备播放!

##### MediaInfo ######
General
Unique ID : 262737733209280010696934603950380155364 (0xC5A97260E20E3376660BD305DE3601E4)
Complete name : The.Golden.Lion.1975.1080p.WEB-DL.H265.AAC-DreamHD.mkv
Duration : 1 h 24 min
Overall bit rate : 2 497 kb/s

Video
ID : 1
Format : HEVC
Format/Info : High Efficiency Video Coding
Format profile : Main@L4@Main
Codec ID : V_MPEGH/ISO/HEVC
Duration : 1 h 24 min
Bit rate : 2 305 kb/s
Width : 1 920 pixels
Height : 816 pixels
Display aspect ratio : 2.35:1
Frame rate mode : Constant
Frame rate : 24.000 FPS
Color space : YUV
Chroma subsampling : 4:2:0
Bit depth : 8 bits
Bits/(Pixel*Frame) : 0.061
Stream size : 1.35 GiB (92%)
Default : Yes
Forced : No
Color range : Limited

Audio
ID : 2
Format : AAC LC
Format/Info : Advanced Audio Codec Low Complexity
Codec ID : A_AAC-2
Duration : 1 h 24 min
Bit rate : 192 kb/s
Channel(s) : 2 channels
Channel layout : L R
Sampling rate : 44.1 kHz
Frame rate : 43.066 FPS (1024 SPF)
Compression mode : Lossy
Stream size : 114 MiB (8%)
Language : Chinese
Default : Yes
Forced : No


部分资源为软字幕,移动端推荐播放器:MxPlayer,nPlayer,infuse ,其他播放器请自行尝试。

部分资源为软字幕,电脑端推荐播放器:PotPlayer,完美解码,KMPLAYER,其他播放器请自行尝试。



1 个附件 售价 大小 下载 时间

The.Golden.Lion.1975.1080p.WEB-DL.H265.AAC-DreamHD[1LOU.ME].torrent 0 金币 6.72K 973 次 1月前

#1楼
发帖时间:2024-02-25 09:18:27   |   回复数:0
游客组