Asuka601
隐世仙人♂

[2016] [欧美] [剧情] [WEB-4K] 萨利机长[国英多音轨/中文字幕].Sully.2016.2160p.WEB-DL.H265.DDP5.1.2Audio-DreamHD 9.61GB

-->

完整标题:萨利机长[国英多音轨/中文字幕].Sully.2016.2160p.WEB-DL.H265.DDP5.1.2Audio-DreamHD 9.61GB



◎标  题 萨利机长
◎译  名 萨利机长:迫降奇迹(港) / 萨利机长:哈德逊奇迹(台) / 哈德逊河奇迹 / 萨利
◎片  名 Sully
◎年  代 2016
◎产  地 美国
◎类  别 剧情 / 传记
◎语  言 英语
◎上映日期 2016-12-09(中国大陆) / 2016-09-09(美国)
◎IMDb评分 7.4/10 (292609人评价)
◎IMDb链接 https://www.imdb.com/title/tt3263904/
◎豆瓣评分 8.3/10 (352817人评价)
◎豆瓣链接 https://movie.douban.com/subject/26416603/
◎片  长 96分钟
◎导  演 克林特·伊斯特伍德 Clint Eastwood
◎编  剧 托德·考马尔尼基 Todd Komarnicki
      切斯利·舒伦伯格 Chesley Sullenberger
      杰弗里·札斯洛 Jeffrey Zaslow
◎演  员 汤姆·汉克斯 Tom Hanks
      艾伦·艾克哈特 Aaron Eckhart
      劳拉·琳妮 Laura Linney
      杰瑞·费拉拉 Jerry Ferrara
      安娜·冈 Anna Gunn
      奥图姆·瑞瑟 Autumn Reeser
      霍特·麦克卡兰尼 Holt McCallany
      克里斯·鲍尔 Chris Bauer
      杰米·谢尔丹 Jamey Sheridan
      安·库萨克 Ann Cusack
      莫莉·哈根 Molly Hagan
      马克斯·阿德勒 Max Adler
      萨姆·亨廷顿 Sam Huntington
      韦恩·巴斯楚普 Wayne Bastrup
      维勒莉·玛哈菲 Valerie Mahaffey
      凯蒂·柯丽克 Katie Couric
      杰夫·科伯 Jeff Kober
      莫莉·伯纳德 Molly Bernard
      库珀·索恩顿 Cooper Thornton
      维布尔·弗利茨杰拉德 Wilbur Fitzgerald
      杰弗里·诺灵 Jeffrey Nordling
      帕奇·德拉奇 Patch Darragh
      布雷特·赖斯 Brett Rice
      E·罗杰·米切尔 E. Roger Mitchell
      罗伯特·普拉尔戈 Robert Pralgo
      迈克尔·拉帕波特 Michael Rapaport
      普鲁瓦·贝迪 Purva Bedi
      克里斯托弗·柯里 Christopher Curry
      因德尔·库马尔 Inder Kumar
      加里·维克斯 Gary Weeks
      特雷西·齐默 Tracee Chimo
      迈克·奥麦利 Mike O'Malley

◎简  介
    影片根据真实事件改编,2009年1月15日,萨利(汤姆·汉克斯 Tom Hanks 饰)在全美航空1549号班担任机长,飞机起飞两分钟后遭到飞鸟攻击,两架发动机全部熄火,萨利决定在哈德逊河上迫降,155人全数生还。但之后的调查显示他做了错误的抉择,认为大可选择返回拉瓜地亚机场。机内到底发生了什么呢?

点击图片可查看大图

软字幕无法在截图上展现,HDR版本/杜比视界版本截图会出现颜色异常,请使用支持的设备播放!

##### MediaInfo ######
General
Unique ID : 285627405726435685888877785985890161741 (0xD6E1D65D65853C3CA9BE95BD2DCC944D)
Complete name : Sully.2016.2160p.WEB-DL.H265.DDP5.1.2Audio-DreamHD.mkv
Duration : 1 h 31 min
Overall bit rate : 15.0 Mb/s

Video
ID : 1
Format : HEVC
Format/Info : High Efficiency Video Coding
Format profile : Main@L5@Main
Codec ID : V_MPEGH/ISO/HEVC
Duration : 1 h 31 min
Bit rate : 14.1 Mb/s
Width : 3 840 pixels
Height : 2 160 pixels
Display aspect ratio : 16:9
Frame rate mode : Constant
Frame rate : 25.000 FPS
Color space : YUV
Chroma subsampling : 4:2:0
Bit depth : 8 bits
Bits/(Pixel*Frame) : 0.068
Stream size : 9.03 GiB (94%)
Default : Yes
Forced : No
Color range : Limited

Audio #1
ID : 2
Format : E-AC-3
Format/Info : Enhanced AC-3
Commercial name : Dolby Digital Plus
Codec ID : A_EAC3
Duration : 1 h 31 min
Bit rate mode : Constant
Bit rate : 256 kb/s
Channel(s) : 6 channels
Channel layout : L R C LFE Ls Rs
Sampling rate : 48.0 kHz
Frame rate : 31.250 FPS (1536 SPF)
Compression mode : Lossy
Stream size : 168 MiB (2%)
Title : [DDP5.1]
Language : English
Service kind : Complete Main
Default : Yes
Forced : No

Audio #2
ID : 3
Format : E-AC-3
Format/Info : Enhanced AC-3
Commercial name : Dolby Digital Plus
Codec ID : A_EAC3
Duration : 1 h 31 min
Bit rate mode : Constant
Bit rate : 256 kb/s
Channel(s) : 6 channels
Channel layout : L R C LFE Ls Rs
Sampling rate : 48.0 kHz
Frame rate : 31.250 FPS (1536 SPF)
Compression mode : Lossy
Stream size : 168 MiB (2%)
Title : Mandarin [DDP5.1]
Language : Chinese
Service kind : Complete Main
Default : No
Forced : No

Audio #3
ID : 4
Format : AAC LC
Format/Info : Advanced Audio Codec Low Complexity
Codec ID : A_AAC-2
Duration : 1 h 31 min
Bit rate : 192 kb/s
Channel(s) : 2 channels
Channel layout : L R
Sampling rate : 44.1 kHz
Frame rate : 43.066 FPS (1024 SPF)
Compression mode : Lossy
Stream size : 125 MiB (1%)
Title : [AAC2.0]
Language : English
Default : No
Forced : No

Audio #4
ID : 5
Format : AAC LC
Format/Info : Advanced Audio Codec Low Complexity
Codec ID : A_AAC-2
Duration : 1 h 31 min
Bit rate : 192 kb/s
Channel(s) : 2 channels
Channel layout : L R
Sampling rate : 44.1 kHz
Frame rate : 43.066 FPS (1024 SPF)
Compression mode : Lossy
Stream size : 125 MiB (1%)
Title : Mandarin [AAC2.0]
Language : Chinese
Default : No
Forced : No


部分资源为软字幕,移动端推荐播放器:MxPlayer,nPlayer,infuse ,其他播放器请自行尝试。

部分资源为软字幕,电脑端推荐播放器:PotPlayer,完美解码,KMPLAYER,其他播放器请自行尝试。



1 个附件 售价 大小 下载 时间

Sully.2016.2160p.WEB-DL.H265.DDP5.1.2Audio-DreamHD[1LOU.ME].torrent 0 金币 27.07K 1470 次 1月前

#1楼
发帖时间:2024-02-25 09:17:06   |   回复数:1
feung18
武林盟主
感謝樓主辛苦 !
1月前 #2楼
游客组