Asuka601
隐世仙人♂

[2018] [大陆] [动作] [WEB-4K] 狄仁杰之四大天王[60帧率版本][国语音轨/中文字幕].2018.60FPS.2160p.WEB-DL.H265.10bit.AAC-GPTHD 23.20GB

-->

完整标题:狄仁杰之四大天王[60帧率版本][国语音轨/中文字幕].2018.60FPS.2160p.WEB-DL.H265.10bit.AAC-GPTHD 23.20GB



◎标  题 狄仁杰之四大天王
◎译  名 狄仁杰3 / Detective Dee: The Four Heavenly Kings
◎年  代 2018
◎产  地 中国大陆 / 中国香港
◎类  别 动作 / 悬疑 / 奇幻 / 武侠 / 古装
◎语  言 汉语普通话
◎上映日期 2018-07-27(中国大陆)
◎IMDb评分 6.3/10 (2830人评价)
◎IMDb链接 https://www.imdb.com/title/tt6869538/
◎豆瓣评分 6.1/10 (263698人评价)
◎豆瓣链接 https://movie.douban.com/subject/25882296/
◎片  长 132分钟
◎导  演 徐克 Hark Tsui
◎编  剧 张家鲁 Chia-lu Chang
      徐克 Hark Tsui
      陈国富 Kuo-fu Chen
◎演  员 赵又廷 Mark Chao
      冯绍峰 Shaofeng Feng
      林更新 Gengxin Lin
      阮经天 Ethan Juan
      马思纯 Sichun Ma
      刘嘉玲 Carina Lau
      盛鉴 Chien Sheng
      杨一威 Yiwei Yang
      唐古特·宝日夫 Tangad Borkhuu
      张傲月 Aoyue Zhang
      孙蛟龙 Jiaolong Sun
      汪汐潮 Xichao Wang
      铁男 Nan Tie
      李炳雷 Binglei Li
      许明虎 Tiger Xu
      山新 Shuang Wang
      刘芊孜 Qianzi Liu
      吴潇娜 Xiaona Wu
      黄路霏 Lufei Huang
      王青青 Qingqing Wang
      张艺骞 Yiqian Zhang
      程昱泓 Yuhong Cheng
      贾伟 Wei Jia
      牟凯凯 Kaikai Mu
      上泽 Ze Shang

◎简  介
    狄仁杰(赵又廷 饰)大破神都龙王案后,高宗(盛鉴 饰)御赐神器亢龙锏,遭天后武则天(刘嘉玲 饰)嫉妒,天后为盗取亢龙锏陷害狄仁杰,召集了一帮会方术的“异人组”图谋不轨,并命令尉迟真金(冯绍峰 饰)带队。狄仁杰在医官沙陀忠(林更新 饰)的帮助下成功摆脱“异人组”迫害,并和尉迟真金商议和解,与此同时“异人组”刺客水月(马思纯 饰)却发现都城出现不明势力,在狄仁杰周旋于武则天的埋伏时,大唐陷入更深的危机,“封魔族”携异术登场,一场“屠魔”大战即将爆发……

点击图片可查看大图

软字幕无法在截图上展现,HDR版本/杜比视界版本截图会出现颜色异常,请使用支持的设备播放!

##### MediaInfo ######
General
Complete name : 狄仁杰之四大天王.Detective.Dee.The.Four.Heavenly.Kings.2018.60FPS.2160p.WEB-DL.H265.10bit.AAC-GPTHD.mp4
Duration : 2 h 11 min
Overall bit rate : 25.2 Mb/s

Video
ID : 1
Format : HEVC
Format/Info : High Efficiency Video Coding
Format profile : Main [email protected]@Main
Codec ID : hev1
Codec ID/Info : High Efficiency Video Coding
Duration : 2 h 11 min
Bit rate : 25.0 Mb/s
Width : 3 840 pixels
Height : 2 080 pixels
Display aspect ratio : 1.85:1
Frame rate mode : Variable
Frame rate : 60.000 FPS
Minimum frame rate : 59.960 FPS
Maximum frame rate : 60.040 FPS
Color space : YUV
Chroma subsampling : 4:2:0
Bit depth : 10 bits
Bits/(Pixel*Frame) : 0.052
Stream size : 23.0 GiB (99%)
Color range : Limited
Color primaries : BT.709
Transfer characteristics : BT.709
Matrix coefficients : BT.709
Codec configuration box : hvcC

Audio
ID : 2
Format : AAC LC
Format/Info : Advanced Audio Codec Low Complexity
Codec ID : mp4a-40-2
Duration : 2 h 11 min
Bit rate mode : Constant
Bit rate : 192 kb/s
Channel(s) : 2 channels
Channel layout : L R
Sampling rate : 44.1 kHz
Frame rate : 43.066 FPS (1024 SPF)
Compression mode : Lossy
Stream size : 181 MiB (1%)
Default : Yes
Alternate group : 1


部分资源为软字幕,移动端推荐播放器:MxPlayer,nPlayer,infuse ,其他播放器请自行尝试。

部分资源为软字幕,电脑端推荐播放器:PotPlayer,完美解码,KMPLAYER,其他播放器请自行尝试。



1 个附件 售价 大小 下载 时间

2018.60FPS.2160p.WEB-DL.H265.10bit.AAC-GPTHD[1LOU.ME].torrent 0 金币 61.13K 2094 次 1月前

#1楼
发帖时间:2024-02-25 09:12:56   |   回复数:0
游客组