Asuka601
隐世仙人♂

[更 早] [日本] [剧情] [BD-1080P] 白色巨塔[简繁双语字幕].The.Great.White.Tower.1966.BluRay.1080p.LPCM2.0.x265.10bit-DreamHD

-->

完整标题:白色巨塔[简繁双语字幕].The.Great.White.Tower.1966.BluRay.1080p.LPCM2.0.x265.10bit-DreamHD 11.64GB



◎标  题 白色巨塔
◎译  名 The Great White Tower / The Ivory Tower
◎片  名 白い巨塔
◎年  代 1966
◎产  地 日本
◎类  别 剧情
◎语  言 日语
◎上映日期 1966-10-15(日本)
◎IMDb评分 7.5/10 (239人评价)
◎IMDb链接 https://www.imdb.com/title/tt0327147/
◎豆瓣评分 8.5/10 (1377人评价)
◎豆瓣链接 https://movie.douban.com/subject/2156806/
◎片  长 150分钟
◎导  演 山本萨夫 Satsuo Yamamoto
◎编  剧 桥本忍 Shinobu Hashimoto
      山崎丰子 Toyoko Yamasaki
◎演  员 田宫二郎 Jiro Tamiya
      东野英治郎 Eijirô Tôno
      田村高广 Takahiro Tamura
      小泽荣太郎 Eitarô Ozawa
      船越英二 Eiji Funakoshi
      泷泽修 Osamu Takizawa
      藤村志保 Shiho Fujimura
      小川真由美 Mayumi Ogawa
      岸辉子 Teruko Kishi
      加藤嘉 Yoshi Katô
      清水将夫 Masao Shimizu
      石山健二郎 Ishiyama Kenjiro
      加藤武 Takeshi Katô
      下条正巳 Masami Shimojô
      铃木瑞穗 Mizuho Suzuki
      早川雄三 Yuzo Hayakawa
      高原骏雄 Toshio Takahara
      潮万太郎 Mantarô Ushio
      北原义郎 Yoshirô Kitahara
      長谷川待子 Machiko Hasegawa
      泷花久子 Hisako Takihana
      村田扶实子 Fumiko Murata
      竹村洋介 Yosuke Takemura
      南方伸夫 Nobuo Minakata
      阿井美千子 Michiko Ai
      岡崎夏子 Natsuko Okazaki

◎简  介
    浪速大学医学部第一外科的东贞藏教授(东野英治郎 饰)退休在即,拥有出色手术技巧且在医护工作者中享有极高人气的副教授财前五郎(田宫二郎 饰)是下一任教授的最有力候选人。出身贫寒的财前对名利有着超乎常人的野心,却也因此招至了东教授的不满。为了阻挡财前的步伐,东策划在全国范围内选拔继任者。感受到莫大压力的财前,在岳父财前又一(石山健二郎 饰)及大阪市北区医师会强大财力支持下,火力全开对教授职位进行搏命狙击。与此同时,一名胃癌患者交到财前手中。但是热衷名利之争的财前罔顾同期里见修二(田村高广 饰)的建议,自顾自进行了手术,最终将自己卷入医疗事故的漩涡之中……   本片根据山崎丰子的同名原作改编。

##### MediaInfo ######
General
Unique ID : 311096355176913877669273508880700931911 (0xEA0AFA85B16DE2316558C69A488BFF47)
Complete name : The.Great.White.Tower.1966.BluRay.1080p.LPCM2.0.x265.10bit-DreamHD.mkv
Duration : 2 h 29 min
Overall bit rate : 11.1 Mb/s

Video
ID : 1
Format : HEVC
Format/Info : High Efficiency Video Coding
Format profile : Main [email protected]@High
Codec ID : V_MPEGH/ISO/HEVC
Duration : 2 h 29 min
Bit rate : 8 313 kb/s
Width : 1 920 pixels
Height : 812 pixels
Display aspect ratio : 2.35:1
Frame rate mode : Constant
Frame rate : 23.976 (24000/1001) FPS
Color space : YUV
Chroma subsampling : 4:2:0 (Type 2)
Bit depth : 10 bits
Bits/(Pixel*Frame) : 0.222
Stream size : 8.70 GiB (75%)
Writing library : x265 3.5+100-3dae0c3cc:[Windows][GCC 12.2.0][64 bit] 10bit
Encoding settings : cpuid=1111039 / frame-threads=4 / numa-pools=16 / wpp / no-pmode / no-pme / no-psnr / no-ssim / log-level=2 / input-csp=1 / input-res=1920x812 / interlace=0 / total-frames=215452 / level-idc=51 / high-tier=1 / uhd-bd=0 / ref=6 / no-allow-non-conformance / no-repeat-headers / annexb / no-aud / no-eob / no-eos / no-hrd / info / hash=0 / temporal-layers=0 / no-open-gop / min-keyint=23 / keyint=250 / gop-lookahead=0 / bframes=14 / b-adapt=2 / b-pyramid / bframe-bias=0 / rc-lookahead=75 / lookahead-slices=5 / scenecut=40 / no-hist-scenecut / radl=0 / no-splice / no-intra-refresh / ctu=32 / min-cu-size=8 / no-rect / no-amp / max-tu-size=32 / tu-inter-depth=1 / tu-intra-depth=1 / limit-tu=0 / rdoq-level=0 / dynamic-rd=0.00 / no-ssim-rd / signhide / no-tskip / nr-intra=0 / nr-inter=0 / no-constrained-intra / no-strong-intra-smoothing / max-merge=3 / limit-refs=1 / no-limit-modes / me=3 / subme=7 / merange=48 / temporal-mvp / no-frame-dup / hme / Level / merange / L0,L1,L2=24,36,48 / weightp / weightb / no-analyze-src-pics / deblock=0:0 / sao / no-sao-non-deblock / rd=4 / selective-sao=4 / early-skip / rskip / no-fast-intra / no-tskip-fast / no-cu-lossless / b-intra / no-splitrd-skip / rdpenalty=2 / psy-rd=2.00 / psy-rdoq=0.00 / no-rd-refine / no-lossless / cbqpoffs=0 / crqpoffs=0 / rc=crf / crf=15.0 / qcomp=0.60 / qpstep=4 / stats-write=0 / stats-read=0 / vbv-maxrate=160000 / vbv-bufsize=160000 / vbv-init=0.9 / min-vbv-fullness=50.0 / max-vbv-fullness=80.0 / crf-max=0.0 / crf-min=0.0 / ipratio=1.40 / pbratio=1.30 / aq-mode=1 / aq-strength=1.00 / cutree / zone-count=0 / no-strict-cbr / qg-size=32 / no-rc-grain / qpmax=69 / qpmin=0 / no-const-vbv / sar=0 / overscan=0 / videoformat=5 / range=0 / colorprim=1 / transfer=1 / colormatrix=1 / chromaloc=1 / chromaloc-top=2 / chromaloc-bottom=2 / display-window=0 / cll=0,0 / min-luma=0 / max-luma=1023 / log2-max-poc-lsb=8 / vui-timing-info / vui-hrd-info / slices=1 / no-opt-qp-pps / no-opt-ref-list-length-pps / no-multi-pass-opt-rps / scenecut-bias=0.05 / no-opt-cu-delta-qp / aq-motion / no-hdr10 / no-hdr10-opt / no-dhdr10-opt / no-idr-recovery-sei / analysis-reuse-level=0 / analysis-save-reuse-level=0 / analysis-load-reuse-level=0 / scale-factor=0 / refine-intra=0 / refine-inter=0 / refine-mv=1 / refine-ctu-distortion=0 / no-limit-sao / ctu-info=0 / no-lowpass-dct / refine-analysis-type=0 / copy-pic=1 / max-ausize-factor=1.0 / no-dynamic-refine / no-single-sei / no-hevc-aq / no-svt / no-field / qp-adaptation-range=1.00 / scenecut-aware-qp=0conformance-window-offsets / right=0 / bottom=0 / decoder-max-rate=0 / no-vbv-live-multi-pass / no-mcstf / no-sbrc
Default : Yes
Forced : No
Color range : Limited
Color primaries : BT.709
Transfer characteristics : BT.709
Matrix coefficients : BT.709

Audio
ID : 2
Format : PCM
Format settings : Little / Signed
Codec ID : A_PCM/INT/LIT
Duration : 2 h 29 min
Bit rate mode : Constant
Bit rate : 2 304 kb/s
Channel(s) : 2 channels
Sampling rate : 48.0 kHz
Frame rate : 200.000 FPS (240 SPF)
Bit depth : 24 bits
Stream size : 2.41 GiB (21%)
Language : Japanese
Default : Yes
Forced : No

Text #1
ID : 3
Format : PGS
Codec ID : S_HDMV/PGS
Codec ID/Info : Picture based subtitle format used on BDs/HD-DVDs
Duration : 2 h 27 min
Bit rate : 310 kb/s
Frame rate : 1.545 FPS
Count of elements : 13665
Stream size : 326 MiB (3%)
Language : Japanese
Default : Yes
Forced : No

Text #2
ID : 4
Format : PGS
Codec ID : S_HDMV/PGS
Codec ID/Info : Picture based subtitle format used on BDs/HD-DVDs
Duration : 2 h 28 min
Bit rate : 35.2 kb/s
Frame rate : 0.421 FPS
Count of elements : 3748
Stream size : 37.4 MiB (0%)
Title : 简体字幕
Language : Chinese
Default : Yes
Forced : No

Text #3
ID : 5
Format : PGS
Codec ID : S_HDMV/PGS
Codec ID/Info : Picture based subtitle format used on BDs/HD-DVDs
Duration : 2 h 28 min
Bit rate : 37.0 kb/s
Frame rate : 0.421 FPS
Count of elements : 3748
Stream size : 39.3 MiB (0%)
Title : 繁体字幕
Language : Chinese
Default : Yes
Forced : No

Text #4
ID : 6
Format : PGS
Codec ID : S_HDMV/PGS
Codec ID/Info : Picture based subtitle format used on BDs/HD-DVDs
Duration : 2 h 28 min
Bit rate : 62.0 kb/s
Frame rate : 0.421 FPS
Count of elements : 3748
Stream size : 65.9 MiB (1%)
Title : 简日双语字幕
Language : Chinese
Default : Yes
Forced : No

Text #5
ID : 7
Format : PGS
Codec ID : S_HDMV/PGS
Codec ID/Info : Picture based subtitle format used on BDs/HD-DVDs
Duration : 2 h 28 min
Bit rate : 63.7 kb/s
Frame rate : 0.421 FPS
Count of elements : 3748
Stream size : 67.7 MiB (1%)
Title : 繁日双语字幕
Language : Chinese
Default : Yes
Forced : No

Menu
00:00:00.000 : en:第 01 章
00:03:53.566 : en:第 02 章
00:15:58.624 : en:第 03 章
00:21:40.590 : en:第 04 章
00:25:05.462 : en:第 05 章
00:30:31.246 : en:第 06 章
00:35:40.972 : en:第 07 章
00:39:52.223 : en:第 08 章
00:42:56.198 : en:第 09 章
00:45:08.122 : en:第 10 章
00:49:39.559 : en:第 11 章
00:53:30.999 : en:第 12 章
00:57:04.838 : en:第 13 章
01:04:24.151 : en:第 14 章
01:07:37.178 : en:第 15 章
01:11:58.022 : en:第 16 章
01:12:44.276 : en:第 17 章
01:17:28.602 : en:第 18 章
01:22:38.244 : en:第 19 章
01:27:10.433 : en:第 20 章
01:32:24.330 : en:第 21 章
01:38:42.541 : en:第 22 章
01:40:40.659 : en:第 23 章
01:49:06.665 : en:第 24 章
01:55:03.605 : en:第 25 章
01:59:24.866 : en:第 26 章
02:02:41.228 : en:第 27 章
02:13:21.993 : en:第 28 章
02:17:39.960 : en:第 29 章
02:26:18.519 : en:第 30 章


部分资源为软字幕,移动端推荐播放器:MxPlayer,nPlayer,infuse ,其他播放器请自行尝试。

部分资源为软字幕,电脑端推荐播放器:PotPlayer,完美解码,KMPLAYER,其他播放器请自行尝试。



1 个附件 售价 大小 下载 时间

The.Great.White.Tower.1966.BluRay.1080p.LPCM2.0.x265.10bit-DreamHD[1LOU.ME].torrent 0 金币 32.27K 1512 次 1月前

#1楼
发帖时间:2024-02-24 15:29:18   |   回复数:0
游客组