Asuka601
隐世仙人♂

[更 早] [日本] [剧情] [BD-1080P] 砂之女[简繁英字幕].Woman.In.The.Dunes.1964.BluRay.1080p.LPCM1.0.x264-DreamHD 13.61GB

-->

完整标题:砂之女[简繁英字幕].Woman.In.The.Dunes.1964.BluRay.1080p.LPCM1.0.x264-DreamHD 13.61GB



◎标  题 砂之女
◎译  名 沙之女 / Suna no onna / Woman in the Dunes
◎片  名 砂の女
◎年  代 1964
◎产  地 日本
◎类  别 剧情
◎语  言 日语
◎上映日期 1964-02-15(日本)
◎IMDb评分 8.5/10 (22014人评价)
◎IMDb链接 https://www.imdb.com/title/tt0058625/
◎豆瓣评分 8.6/10 (12675人评价)
◎豆瓣链接 https://movie.douban.com/subject/1295812/
◎片  长 123 分钟 / 147 分钟(director's cut)
◎导  演 敕使河原宏 Hiroshi Teshigahara
◎编  剧 安部公房 Kôbô Abe
◎演  员 冈田英次 Eiji Okada
      岸田今日子 Kyôko Kishida
      三井弘次 Kôji Mitsui
      矢野宣 Sen Yano

◎简  介
    一个昆虫学家(冈田英次 饰)在沙漠做野外考察,却不慎错过归程班车,被困在一个沙漠中的小村子里。他落脚在一个寡妇(岸田今日子 饰)家,被招待之后发现通往外界的路已经被封住。他慢慢观察村子的各种古怪,比如全部村民每到夜晚都要出动铲沙,以免居住的房屋被沙子埋掉,所有的水都受到管制,实行配给制使用等。收留他的寡妇开始用身体诱惑他,试图和他重组一个家庭,他几次三番尝试逃走都以失败告终,只好表面上虚与委蛇,进入村子定期劳动、享受配给的生活模式,但他内心始终在做逃走的打算。一日,寡妇突发急病,被医生诊断为意外怀孕,大家手忙脚乱带她去送医,男人终于有了千载难逢的逃走机会……

##### MediaInfo ######
General
Unique ID : 149248606986162279895057423583000290173 (0x70483C735C7BCCE16541B2A69372637D)
Complete name : Woman.In.The.Dunes.1964.BluRay.1080p.LPCM1.0.x264-DreamHD.mkv
Duration : 2 h 27 min
Overall bit rate : 13.2 Mb/s

Video
ID : 1
Format : AVC
Format/Info : Advanced Video Codec
Format profile : [email protected]
Format settings : CABAC / 5 Ref Frames
Format settings, CABAC : Yes
Format settings, Reference frames : 5 frames
Codec ID : V_MPEG4/ISO/AVC
Duration : 2 h 27 min
Bit rate : 12.0 Mb/s
Width : 1 444 pixels
Height : 1 080 pixels
Display aspect ratio : 4:3
Frame rate mode : Constant
Frame rate : 23.976 (24000/1001) FPS
Color space : YUV
Chroma subsampling : 4:2:0
Bit depth : 8 bits
Scan type : Progressive
Bits/(Pixel*Frame) : 0.321
Stream size : 12.4 GiB (91%)
Writing library : x264 core 164 r3106 eaa68fa
Encoding settings : cabac=1 / ref=5 / deblock=1:-3:-3 / analyse=0x3:0x133 / me=umh / subme=11 / psy=1 / psy_rd=1.00:0.00 / mixed_ref=1 / me_range=64 / chroma_me=1 / trellis=2 / 8x8dct=1 / cqm=0 / deadzone=21,11 / fast_pskip=0 / chroma_qp_offset=-2 / threads=24 / lookahead_threads=6 / sliced_threads=0 / nr=0 / decimate=0 / interlaced=0 / bluray_compat=0 / constrained_intra=0 / bframes=12 / b_pyramid=2 / b_adapt=2 / b_bias=0 / direct=3 / weightb=1 / open_gop=0 / weightp=2 / keyint=250 / keyint_min=23 / scenecut=40 / intra_refresh=0 / rc=crf / mbtree=0 / crf=17.0 / qcomp=0.70 / qpmin=0 / qpmax=69 / qpstep=4 / ip_ratio=1.30 / pb_ratio=1.20 / aq=3:0.80
Default : Yes
Forced : No
Color range : Limited
Color primaries : BT.709
Matrix coefficients : BT.709

Audio
ID : 2
ID in the original source medium : 4352 (0x1100)
Format : PCM
Format settings : Little / Signed
Codec ID : A_PCM/INT/LIT
Duration : 2 h 27 min
Bit rate mode : Constant
Bit rate : 1 152 kb/s
Channel(s) : 1 channel
Sampling rate : 48.0 kHz
Frame rate : 200.000 FPS (240 SPF)
Bit depth : 24 bits
Stream size : 1.19 GiB (9%)
Language : Japanese
Default : Yes
Forced : No
Original source medium : Blu-ray

Text #1
ID : 3
ID in the original source medium : 4608 (0x1200)
Format : PGS
Codec ID : S_HDMV/PGS
Codec ID/Info : Picture based subtitle format used on BDs/HD-DVDs
Duration : 2 h 26 min
Bit rate : 16.0 kb/s
Frame rate : 0.171 FPS
Count of elements : 1506
Stream size : 16.8 MiB (0%)
Language : English
Default : Yes
Forced : No
Original source medium : Blu-ray

Text #2
ID : 4
ID in the original source medium : 4609 (0x1201)
Format : PGS
Codec ID : S_HDMV/PGS
Codec ID/Info : Picture based subtitle format used on BDs/HD-DVDs
Duration : 2 h 26 min
Bit rate : 7 917 b/s
Frame rate : 0.171 FPS
Count of elements : 1510
Stream size : 8.32 MiB (0%)
Title : 简体字幕①
Language : Chinese
Default : Yes
Forced : No
Original source medium : Blu-ray

Text #3
ID : 5
ID in the original source medium : 4610 (0x1202)
Format : PGS
Codec ID : S_HDMV/PGS
Codec ID/Info : Picture based subtitle format used on BDs/HD-DVDs
Duration : 2 h 26 min
Bit rate : 8 326 b/s
Frame rate : 0.171 FPS
Count of elements : 1510
Stream size : 8.75 MiB (0%)
Title : 繁体字幕①
Language : Chinese
Default : Yes
Forced : No
Original source medium : Blu-ray

Text #4
ID : 6
ID in the original source medium : 4611 (0x1203)
Format : PGS
Codec ID : S_HDMV/PGS
Codec ID/Info : Picture based subtitle format used on BDs/HD-DVDs
Duration : 2 h 26 min
Bit rate : 8 008 b/s
Frame rate : 0.173 FPS
Count of elements : 1526
Stream size : 8.42 MiB (0%)
Title : 简体字幕②
Language : Chinese
Default : Yes
Forced : No
Original source medium : Blu-ray

Text #5
ID : 7
ID in the original source medium : 4612 (0x1204)
Format : PGS
Codec ID : S_HDMV/PGS
Codec ID/Info : Picture based subtitle format used on BDs/HD-DVDs
Duration : 2 h 26 min
Bit rate : 8 434 b/s
Frame rate : 0.173 FPS
Count of elements : 1526
Stream size : 8.87 MiB (0%)
Title : 繁体字幕②
Language : Chinese
Default : Yes
Forced : No
Original source medium : Blu-ray

Menu
00:00:00.000 : en:第 01 章
00:02:21.141 : en:第 02 章
00:09:30.027 : en:第 03 章
00:13:09.038 : en:第 04 章
00:15:18.125 : en:第 05 章
00:22:25.886 : en:第 06 章
00:28:59.654 : en:第 07 章
00:36:23.055 : en:第 08 章
00:42:42.184 : en:第 09 章
00:49:52.364 : en:第 10 章
00:54:25.387 : en:第 11 章
00:57:53.678 : en:第 12 章
01:02:16.733 : en:第 13 章
01:10:36.732 : en:第 14 章
01:16:17.406 : en:第 15 章
01:21:00.438 : en:第 16 章
01:29:46.047 : en:第 17 章
01:31:57.970 : en:第 18 章
01:40:14.508 : en:第 19 章
01:47:23.520 : en:第 20 章
01:50:50.143 : en:第 21 章
01:57:42.221 : en:第 22 章
02:05:10.211 : en:第 23 章
02:11:06.900 : en:第 24 章
02:14:33.482 : en:第 25 章
02:21:49.667 : en:第 26 章


部分资源为软字幕,移动端推荐播放器:MxPlayer,nPlayer,infuse ,其他播放器请自行尝试。

部分资源为软字幕,电脑端推荐播放器:PotPlayer,完美解码,KMPLAYER,其他播放器请自行尝试。



1 个附件 售价 大小 下载 时间

Woman.In.The.Dunes.1964.BluRay.1080p.LPCM1.0.x264-DreamHD[1LOU.ME].torrent 0 金币 37.18K 2198 次 1月前

#1楼
发帖时间:2024-02-21 22:06:38   |   回复数:1
jokingcheung
超凡入圣№
谢谢分享
1月前 #2楼
游客组