Asuka601
隐世仙人♂

[更 早] [日本] [剧情] [BD-1080P] 大佬[中文字幕].Brother.2000.1080p.BluRay.x265.10bit.DTS-SONYHD 6.29GB

-->

完整标题:大佬[中文字幕].Brother.2000.1080p.BluRay.x265.10bit.DTS-SONYHD 6.29GB



◎标  题 大佬
◎译  名 四海兄弟 / 兄弟
◎片  名 Brother
◎年  代 2000
◎产  地 日本 / 英国 / 美国
◎类  别 剧情 / 惊悚 / 犯罪
◎语  言 英语 / 日语 / 意大利语 / 西班牙语
◎上映日期 2000-09-09(威尼斯电影节) / 2001-01-27(日本)
◎IMDb评分 7.1/10 (24130人评价)
◎IMDb链接 https://www.imdb.com/title/tt0222851/
◎豆瓣评分 8.4/10 (43519人评价)
◎豆瓣链接 https://movie.douban.com/subject/1294181/
◎片  长 114分钟
◎导  演 北野武 Takeshi Kitano
◎编  剧 北野武 Takeshi Kitano
◎演  员 北野武 Takeshi Kitano
      欧玛·艾普斯 Omar Epps
      真木藏人 Claude Maki
      加藤雅也 Masaya Katô
      寺岛进 Susumu Terajima
      罗伊尔·沃特金 Royale Watkins
      隆巴多·博伊尔 Lombardo Boyar
      大杉涟 Ren Ohsugi
      石桥凌 Ryo Ishibashi
      詹姆斯·繁田 James Shigeta
      渡哲也 Tetsuya Watari
      塔缇娜·阿里 Tatyana Ali
      大竹真 Makoto Otake
      奥村公延 Kôen Okumura
      六平直政 Naomasa Musaka
      片濑梨乃 Rino Katase
      安托万·塔纳 Antwon Tanner
      约瑟夫·劳格诺 Joseph Ragno
      罗伯特·科瓦吕比亚 Robert Covarrubias
      阿尔·维森特 Al Vicente
      布拉德利·杰伊·莱斯利 Bradley Jay Lesley
      洛博·塞巴斯蒂安 Lobo Sebastian
      屈丝苔·奈特 Tuesday Knight
      莫汉达斯·德维兹 Mohandas Deweese
      阿莫里·诺拉斯科 Amaury Nolasco
      Tad Horino Tad Horino
      Alvin Ing Alvin Ing
      约翰·阿普雷亚 John Aprea
      曼尼·佩雷斯 Manny Perez
      Eddie Garcia Eddie Garcia
      Darryl M. Bell Darryl M. Bell
      井上英治 Eiji Inoue
      杰夫·米德 Geoff Meed
      仁科贵 Takashi Nishina
      诺尔·古格雷米 Noel Gugliemi
      Miguel Mas Miguel Mas
      森田则之 Pat Morita
      小托马斯·罗萨莱斯 Thomas Rosales Jr.
      清水伸 Shin Shimizu
      富坚真 Makoto Togashi

◎简  介
    在黑帮争斗上失败了的山本(北野武饰),走投无路只能去找远在美国洛杉矶的弟弟阿键(真木藏人饰)。在言语不通的陌生城市里,山本找到了弟弟,但他已经成了不务正业的毒品贩子。   必然地,他们卷入黑帮仇杀、势力争斗当中,山本凭着心狠手辣,冷静果断,再身边有忠诚的手下加藤(寺岛进饰)以及黑人丹尼(欧玛•艾普斯饰),剿灭墨西哥贩毒党,不断壮大自己的地盘,四处挑战其他帮会,还拉拢一大黑帮头领白濑(加藤雅也饰)的甘心加盟。但是黑手党已经将目标瞄准了他们,一场血雨腥风的恶斗在所难免。

##### MediaInfo ######
General
Unique ID : 233073262168682863998807351512659639999 (0xAF5847093C3780BFE881AA83102BBEBF)
Complete name : Brother.2000.1080p.BluRay.x265.10bit.DTS-SONYHD.mkv
Duration : 1 h 53 min
Overall bit rate : 7 917 kb/s

Video
ID : 1
Format : HEVC
Format/Info : High Efficiency Video Coding
Format profile : Main 10@L5@Main
Codec ID : V_MPEGH/ISO/HEVC
Duration : 1 h 53 min
Bit rate : 6 367 kb/s
Width : 1 920 pixels
Height : 1 038 pixels
Display aspect ratio : 1.85:1
Frame rate mode : Constant
Frame rate : 23.976 (24000/1001) FPS
Color space : YUV
Chroma subsampling : 4:2:0
Bit depth : 10 bits
Bits/(Pixel*Frame) : 0.133
Stream size : 5.06 GiB (80%)
Writing library : x265 3.5g2b25c9ba0+45:[Windows][GCC 10.2.0][64 bit] Yuuki 10bit+8bit+12bit
Encoding settings : rc=crf / crf=19.3000 / qcomp=0.60 / qpstep=4 / stats-write=0 / stats-read=0 / no-lossless / no-cu-lossless / aq-mode=3 / aq-strength=0.90 / cbqpoffs=0 / crqpoffs=0 / ipratio=1.40 / pbratio=1.30 / psy-rd=2.00 / psy-rdoq=0.00 / deblock=0:0 / ref=6 / limit-refs=1 / no-limit-modes / bframes=8 / b-adapt=2 / bframe-bias=0 / b-pyramid / b-intra / weightp / weightb / min-keyint=24 / max-keyint=240 / rc-lookahead=24 / gop-lookahead=0 / scenecut=40 / hist-scenecut=0 / radl=0 / max-cu-size=64 / min-cu-size=8 / me=3 / subme=7 / merange=48 / rdoq-level=0 / rd=4 / rdpenalty=0 / dynamic-rd=0.00 / no-rd-refine / ----- / cutree / sao / no-rect / no-amp / no-open-gop / wpp / no-pmode / no-pme / no-psnr / no-ssim / nr-intra=0 / nr-inter=0 / no-constrained-intra / no-strong-intra-smoothing / max-tu-size=32 / tu-inter-depth=1 / tu-intra-depth=1 / limit-tu=0 / qg-size=32 / qpmax=69 / qpmin=0 / ----- / cpuid=1111039 / frame-threads=4 / numa-pools=+ / log-level=2 / input-csp=1 / input-res=1920x1038 / interlace=0 / level-idc=0 / high-tier=1 / uhd-bd=0 / no-allow-non-conformance / no-repeat-headers / aud / no-hrd / info / hash=0 / no-temporal-layers / lookahead-slices=0 / no-splice / no-intra-refresh / no-ssim-rd / signhide / no-tskip / max-merge=3 / temporal-mvp / no-frame-dup / no-hme / no-analyze-src-pics / no-sao-non-deblock / selective-sao=4 / early-skip / rskip / no-fast-intra / no-tskip-fast / no-splitrd-skip / zone-count=0 / no-strict-cbr / no-rc-grain / no-const-vbv / sar=0 / overscan=0 / videoformat=5 / range=0 / colorprim=2 / transfer=2 / colormatrix=2 / chromaloc=0 / display-window=0 / cll=0,0 / min-luma=0 / max-luma=1023 / log2-max-poc-lsb=8 / vui-timing-info / vui-hrd-info / slices=1 / no-opt-qp-pps / no-opt-ref-list-length-pps / no-multi-pass-opt-rps / scenecut-bias=0.05 / hist-threshold=0.03 / no-opt-cu-delta-qp / no-aq-motion / no-hdr10 / no-hdr10-opt / no-dhdr10-opt / no-idr-recovery-sei / analysis-reuse-level=0 / analysis-save-reuse-level=0 / analysis-load-reuse-level=0 / scale-factor=0 / refine-intra=0 / refine-inter=0 / refine-mv=1 / refine-ctu-distortion=0 / no-limit-sao / ctu-info=0 / no-lowpass-dct / refine-analysis-type=0 / copy-pic=1 / max-ausize-factor=1.0 / no-dynamic-refine / no-single-sei / no-hevc-aq / no-svt / no-field / qp-adaptation-range=1.00 / scenecut-aware-qp=0conformance-window-offsets / right=0 / bottom=0 / decoder-max-rate=0 / no-vbv-live-multi-pass
Default : Yes
Forced : No

Audio
ID : 2
Format : DTS
Format/Info : Digital Theater Systems
Codec ID : A_DTS
Duration : 1 h 53 min
Bit rate mode : Constant
Bit rate : 1 509 kb/s
Channel(s) : 6 channels
Channel layout : C L R Ls Rs LFE
Sampling rate : 48.0 kHz
Frame rate : 93.750 FPS (512 SPF)
Bit depth : 24 bits
Compression mode : Lossy
Stream size : 1.20 GiB (19%)
Language : Japanese
Default : Yes
Forced : No

Text #1
ID : 3
ID in the original source medium : 4611 (0x1203)
Format : PGS
Muxing mode : zlib
Codec ID : S_HDMV/PGS
Codec ID/Info : Picture based subtitle format used on BDs/HD-DVDs
Duration : 1 h 48 min
Bit rate : 21.4 kb/s
Frame rate : 0.230 FPS
Count of elements : 1500
Stream size : 16.6 MiB (0%)
Title : chs&eng
Language : Chinese
Default : Yes
Forced : No
Original source medium : Blu-ray

Text #2
ID : 4
ID in the original source medium : 4612 (0x1204)
Format : PGS
Muxing mode : zlib
Codec ID : S_HDMV/PGS
Codec ID/Info : Picture based subtitle format used on BDs/HD-DVDs
Duration : 1 h 48 min
Bit rate : 21.4 kb/s
Frame rate : 0.230 FPS
Count of elements : 1500
Stream size : 16.7 MiB (0%)
Title : cht&eng
Language : Chinese
Default : No
Forced : No
Original source medium : Blu-ray

Text #3
ID : 5
ID in the original source medium : 4613 (0x1205)
Format : PGS
Muxing mode : zlib
Codec ID : S_HDMV/PGS
Codec ID/Info : Picture based subtitle format used on BDs/HD-DVDs
Duration : 1 h 48 min
Bit rate : 11.7 kb/s
Frame rate : 0.230 FPS
Count of elements : 1500
Stream size : 9.11 MiB (0%)
Title : chs
Language : Chinese
Default : No
Forced : No
Original source medium : Blu-ray

Text #4
ID : 6
ID in the original source medium : 4614 (0x1206)
Format : PGS
Muxing mode : zlib
Codec ID : S_HDMV/PGS
Codec ID/Info : Picture based subtitle format used on BDs/HD-DVDs
Duration : 1 h 48 min
Bit rate : 11.8 kb/s
Frame rate : 0.230 FPS
Count of elements : 1500
Stream size : 9.15 MiB (0%)
Title : cht
Language : Chinese
Default : No
Forced : No
Original source medium : Blu-ray

Text #5
ID : 7
Format : PGS
Muxing mode : zlib
Codec ID : S_HDMV/PGS
Codec ID/Info : Picture based subtitle format used on BDs/HD-DVDs
Duration : 1 h 51 min
Bit rate : 18.5 kb/s
Frame rate : 0.228 FPS
Count of elements : 1520
Stream size : 14.7 MiB (0%)
Title : jpn
Language : Japanese
Default : No
Forced : No

Menu
00:00:00.000 : en:Chapter 01
00:07:41.335 : en:Chapter 02
00:22:25.761 : en:Chapter 03
00:36:08.583 : en:Chapter 04
00:43:26.270 : en:Chapter 05
01:01:45.076 : en:Chapter 06
01:17:55.253 : en:Chapter 07
01:33:44.785 : en:Chapter 08
01:48:54.027 : en:Chapter 09


部分资源为软字幕,移动端推荐播放器:MxPlayer,nPlayer,infuse ,其他播放器请自行尝试。

部分资源为软字幕,电脑端推荐播放器:PotPlayer,完美解码,KMPLAYER,其他播放器请自行尝试。



1 个附件 售价 大小 下载 时间

Brother.2000.1080p.BluRay.x265.10bit.DTS-SONYHD[1LOU.ME].torrent 0 金币 18.77K 1771 次 2月前

#1楼
发帖时间:2024-02-21 19:09:34   |   回复数:1
jokingcheung
超凡入圣№
谢谢分享
1月前 #2楼
游客组