Asuka601
隐世仙人♂

[2008] [日本] [剧情] [BD-1080P] 激情[简繁英字幕].Passion.2008.1080p.BluRay.x264.FLAC.2.0-SONYHD 9.14GB

-->

完整标题:激情[简繁英字幕].Passion.2008.1080p.BluRay.x264.FLAC.2.0-SONYHD 9.14GB



◎标  题 激情
◎译  名 激情时代(港) / 暗涌情事(台)
◎片  名 Passion
◎年  代 2008
◎产  地 日本
◎类  别 剧情
◎语  言 日语
◎上映日期 2008-09-26(圣塞巴斯蒂安电影节)
◎IMDb评分 6.9/10 (898人评价)
◎IMDb链接 https://www.imdb.com/title/tt1301178/
◎豆瓣评分 8.0/10 (5727人评价)
◎豆瓣链接 https://movie.douban.com/subject/3233603/
◎片  长 115分钟
◎导  演 滨口龙介 Ryûsuke Hamaguchi
◎编  剧 滨口龙介 Ryûsuke Hamaguchi
◎演  员 河井青叶 Aoba Kawai
      冈本龙汰 Ryuta Okamoto
      占部房子 Fusako Urabe
      冈部尚 Nao Okabe
      涩川清彦 Kiyohiko Shibukawa
      马科·奥拉尼耶 Marco Horanieh

◎简  介
    快要结婚的一对男女参加派对的时候,意外发现这位男人过去的第三者,派对结束后男女分开过夜。在晚上的横滨展开现代青年轻佻浮薄的爱情故事,又像关于爱情的形而上学的考察。他们最后得到的结论是感动还是嘲笑?

点击图片可查看大图

软字幕无法在截图上展现,HDR版本/杜比视界版本截图会出现颜色异常,请使用支持的设备播放!

##### MediaInfo ######
General
Unique ID : 101059139649036764779708945917380939609 (0x4C074846267C3283EE12146291404F59)
Complete name : Passion.2008.1080p.BluRay.x264.FLAC.2.0-SONYHD.mkv
Duration : 1 h 56 min
Overall bit rate mode : Variable
Overall bit rate : 11.3 Mb/s

Video
ID : 1
Format : AVC
Format/Info : Advanced Video Codec
Format profile : [email protected]
Format settings : CABAC / 4 Ref Frames
Format settings, CABAC : Yes
Format settings, Reference frames : 4 frames
Codec ID : V_MPEG4/ISO/AVC
Duration : 1 h 56 min
Bit rate : 10.7 Mb/s
Width : 1 920 pixels
Height : 1 080 pixels
Display aspect ratio : 16:9
Frame rate mode : Constant
Frame rate : 29.970 (30000/1001) FPS
Color space : YUV
Chroma subsampling : 4:2:0
Bit depth : 8 bits
Scan type : Progressive
Bits/(Pixel*Frame) : 0.173
Stream size : 8.69 GiB (95%)
Writing library : x264 core 164 r3107+55M 1028c06 t_mod_New [(8 & 10)-bit@all X86_64]
Encoding settings : cabac=1 / ref=4 / deblock=1:-3:-3 / analyse=0x3:0x133 / me=umh / subme=11 / psy=1 / fade_compensate=0.00 / psy_rd=0.90:0.00 / mixed_ref=1 / me_range=48 / chroma_me=1 / trellis=2 / 8x8dct=1 / cqm=0 / deadzone=21,11 / fast_pskip=0 / chroma_qp_offset=-3 / threads=30 / lookahead_threads=5 / sliced_threads=0 / nr=0 / decimate=0 / interlaced=0 / bluray_compat=0 / constrained_intra=0 / fgo=0 / bframes=8 / b_pyramid=2 / b_adapt=2 / b_bias=0 / direct=3 / weightb=1 / open_gop=0 / weightp=2 / keyint=240 / keyint_min=1 / scenecut=40 / intra_refresh=0 / rc_lookahead=72 / rc=crf / mbtree=0 / crf=18.0000 / qcomp=0.60 / qpmin=0:0:0 / qpmax=69:69:69 / qpstep=4 / vbv_maxrate=62500 / vbv_bufsize=78125 / crf_max=0.0 / nal_hrd=none / filler=0 / ip_ratio=1.40 / pb_ratio=1.30 / aq=3:0.80 / aq-sensitivity=10.00 / aq-factor=1.00:1.00:1.00 / aq2=0 / aq3=0
Language : Japanese
Default : Yes
Forced : No

Audio
ID : 2
Format : FLAC
Format/Info : Free Lossless Audio Codec
Codec ID : A_FLAC
Duration : 1 h 56 min
Bit rate mode : Variable
Bit rate : 456 kb/s
Channel(s) : 2 channels
Channel layout : L R
Sampling rate : 48.0 kHz
Frame rate : 11.719 FPS (4096 SPF)
Bit depth : 16 bits
Compression mode : Lossless
Stream size : 379 MiB (4%)
Title : jap
Writing library : libFLAC 1.2.1 (UTC 2007-09-17)
Language : Japanese
Default : Yes
Forced : No

Text #1
ID : 3
ID in the original source medium : 4609 (0x1201)
Format : PGS
Muxing mode : zlib
Codec ID : S_HDMV/PGS
Codec ID/Info : Picture based subtitle format used on BDs/HD-DVDs
Duration : 1 h 51 min
Bit rate : 24.3 kb/s
Frame rate : 0.400 FPS
Count of elements : 2682
Stream size : 19.5 MiB (0%)
Title : chs
Language : Chinese
Default : Yes
Forced : No
Original source medium : Blu-ray

Text #2
ID : 4
ID in the original source medium : 4610 (0x1202)
Format : PGS
Muxing mode : zlib
Codec ID : S_HDMV/PGS
Codec ID/Info : Picture based subtitle format used on BDs/HD-DVDs
Duration : 1 h 51 min
Bit rate : 24.5 kb/s
Frame rate : 0.400 FPS
Count of elements : 2682
Stream size : 19.6 MiB (0%)
Title : cht
Language : Chinese
Default : No
Forced : No
Original source medium : Blu-ray

Text #3
ID : 5
ID in the original source medium : 4608 (0x1200)
Format : PGS
Muxing mode : zlib
Codec ID : S_HDMV/PGS
Codec ID/Info : Picture based subtitle format used on BDs/HD-DVDs
Duration : 1 h 51 min
Bit rate : 214 kb/s
Frame rate : 1.267 FPS
Count of elements : 8504
Stream size : 171 MiB (2%)
Title : eng
Language : English
Default : No
Forced : No
Original source medium : Blu-ray

Menu
00:00:00.000 : en:Chapter 01
00:09:23.362 : en:Chapter 02
00:19:16.755 : en:Chapter 03
00:30:16.147 : en:Chapter 04
00:39:37.975 : en:Chapter 05
00:52:46.229 : en:Chapter 06
01:01:08.931 : en:Chapter 07
01:10:34.830 : en:Chapter 08
01:19:51.620 : en:Chapter 09
01:28:49.157 : en:Chapter 10
01:40:30.090 : en:Chapter 11
01:52:33.146 : en:Chapter 12


部分资源为软字幕,移动端推荐播放器:MxPlayer,nPlayer,infuse ,其他播放器请自行尝试。

部分资源为软字幕,电脑端推荐播放器:PotPlayer,完美解码,KMPLAYER,其他播放器请自行尝试。



1 个附件 售价 大小 下载 时间

Passion.2008.1080p.BluRay.x264.FLAC.2.0-SONYHD[1LOU.ME].torrent 0 金币 25.88K 1708 次 2月前

#1楼
发帖时间:2024-02-21 17:43:17   |   回复数:0
游客组