Asuka601
隐世仙人♂

[更 早] [日本] [剧情] [BD-1080P] 砂之女[中文字幕].Woman.In.The.Dunes.1964.BluRay.1080p.AAC1.0.x264-DreamHD 4.30GB

-->

完整标题:砂之女[中文字幕].Woman.In.The.Dunes.1964.BluRay.1080p.AAC1.0.x264-DreamHD 4.30GB



◎标  题 砂之女
◎译  名 沙之女 / Suna no onna / Woman in the Dunes
◎片  名 砂の女
◎年  代 1964
◎产  地 日本
◎类  别 剧情
◎语  言 日语
◎上映日期 1964-02-15(日本)
◎IMDb评分 8.5/10 (22014人评价)
◎IMDb链接 https://www.imdb.com/title/tt0058625/
◎豆瓣评分 8.6/10 (12675人评价)
◎豆瓣链接 https://movie.douban.com/subject/1295812/
◎片  长 123 分钟 / 147 分钟(director's cut)
◎导  演 敕使河原宏 Hiroshi Teshigahara
◎编  剧 安部公房 Kôbô Abe
◎演  员 冈田英次 Eiji Okada
      岸田今日子 Kyôko Kishida
      三井弘次 Kôji Mitsui
      矢野宣 Sen Yano

◎简  介
    一个昆虫学家(冈田英次 饰)在沙漠做野外考察,却不慎错过归程班车,被困在一个沙漠中的小村子里。他落脚在一个寡妇(岸田今日子 饰)家,被招待之后发现通往外界的路已经被封住。他慢慢观察村子的各种古怪,比如全部村民每到夜晚都要出动铲沙,以免居住的房屋被沙子埋掉,所有的水都受到管制,实行配给制使用等。收留他的寡妇开始用身体诱惑他,试图和他重组一个家庭,他几次三番尝试逃走都以失败告终,只好表面上虚与委蛇,进入村子定期劳动、享受配给的生活模式,但他内心始终在做逃走的打算。一日,寡妇突发急病,被医生诊断为意外怀孕,大家手忙脚乱带她去送医,男人终于有了千载难逢的逃走机会……

点击图片可查看大图

软字幕无法在截图上展现,HDR版本/杜比视界版本截图会出现颜色异常,请使用支持的设备播放!

##### MediaInfo ######
General
Complete name : Woman.In.The.Dunes.1964.BluRay.1080p.iPad.AAC1.0.x264-DreamHD.mp4
Duration : 2 h 27 min
Overall bit rate : 4 175 kb/s

Video
ID : 1
Format : AVC
Format/Info : Advanced Video Codec
Format profile : [email protected]
Format settings : 5 Ref Frames
Format settings, CABAC : No
Format settings, Reference frames : 5 frames
Codec ID : avc1
Codec ID/Info : Advanced Video Coding
Duration : 2 h 27 min
Bit rate : 4 000 kb/s
Width : 1 920 pixels
Height : 1 080 pixels
Display aspect ratio : 16:9
Frame rate mode : Variable
Frame rate : 23.976 (24000/1001) FPS
Minimum frame rate : 23.974 FPS
Maximum frame rate : 23.981 FPS
Color space : YUV
Chroma subsampling : 4:2:0
Bit depth : 8 bits
Scan type : Progressive
Bits/(Pixel*Frame) : 0.080
Stream size : 4.12 GiB (96%)
Writing library : x264 core 164 r3100 ed0f7a6
Encoding settings : cabac=0 / ref=5 / deblock=0:0:0 / analyse=0x1:0x111 / me=hex / subme=8 / psy=1 / psy_rd=1.00:0.00 / mixed_ref=1 / me_range=16 / chroma_me=1 / trellis=2 / 8x8dct=0 / cqm=0 / deadzone=21,11 / fast_pskip=1 / chroma_qp_offset=-2 / threads=24 / lookahead_threads=4 / sliced_threads=0 / nr=0 / decimate=1 / interlaced=0 / bluray_compat=0 / constrained_intra=0 / bframes=3 / b_pyramid=2 / b_adapt=1 / b_bias=0 / direct=3 / weightb=0 / open_gop=0 / weightp=0 / keyint=240 / keyint_min=24 / scenecut=40 / intra_refresh=0 / rc_lookahead=50 / rc=2pass / mbtree=1 / bitrate=4000 / ratetol=1.0 / qcomp=0.60 / qpmin=0 / qpmax=69 / qpstep=4 / cplxblur=20.0 / qblur=0.5 / vbv_maxrate=800000 / vbv_bufsize=800000 / nal_hrd=none / filler=0 / ip_ratio=1.40 / aq=1:1.00
Encoded date : UTC 2024-02-20 11:00:29
Tagged date : UTC 2024-02-20 11:00:29
Color range : Limited
Color primaries : BT.709
Transfer characteristics : BT.709
Matrix coefficients : BT.709
Menus : 3
mdhd_Duration : 8843502
Codec configuration box : avcC

Audio
ID : 2
Format : AAC LC
Format/Info : Advanced Audio Codec Low Complexity
Codec ID : mp4a-40-2
Duration : 2 h 27 min
Source duration : 2 h 27 min
Bit rate mode : Constant
Bit rate : 167 kb/s
Channel(s) : 1 channel
Channel layout : C
Sampling rate : 48.0 kHz
Frame rate : 46.875 FPS (1024 SPF)
Compression mode : Lossy
Stream size : 176 MiB (4%)
Source stream size : 176 MiB (4%)
Title : Mono
Language : Japanese
Default : Yes
Alternate group : 1
Encoded date : UTC 2024-02-20 11:00:29
Tagged date : UTC 2024-02-20 11:00:29
Menus : 3

Menu
ID : 3
Format : Timed Text
Codec ID : text
Duration : 2 h 27 min
Language : English
Encoded date : UTC 2024-02-20 11:00:29
Tagged date : UTC 2024-02-20 11:00:29
Bit rate mode : CBR
Menu For : 1,2
00:00:00.000 : 第 01 章
00:02:21.141 : 第 02 章
00:09:30.028 : 第 03 章
00:13:09.163 : 第 04 章
00:15:18.126 : 第 05 章
00:22:25.928 : 第 06 章
00:28:59.655 : 第 07 章
00:36:23.056 : 第 08 章
00:42:42.185 : 第 09 章
00:49:52.448 : 第 10 章
00:54:25.471 : 第 11 章
00:57:53.679 : 第 12 章
01:02:16.733 : 第 13 章
01:10:36.733 : 第 14 章
01:16:17.531 : 第 15 章
01:21:00.439 : 第 16 章
01:29:46.131 : 第 17 章
01:31:57.971 : 第 18 章
01:40:14.550 : 第 19 章
01:47:23.604 : 第 20 章
01:50:50.144 : 第 21 章
01:57:42.222 : 第 22 章
02:05:10.294 : 第 23 章
02:11:06.901 : 第 24 章
02:14:33.607 : 第 25 章
02:21:49.668 : 第 26 章
Bit rate mode : Constant


部分资源为软字幕,移动端推荐播放器:MxPlayer,nPlayer,infuse ,其他播放器请自行尝试。

部分资源为软字幕,电脑端推荐播放器:PotPlayer,完美解码,KMPLAYER,其他播放器请自行尝试。



1 个附件 售价 大小 下载 时间

Woman.In.The.Dunes.1964.BluRay.1080p.AAC1.0.x264-DreamHD[1LOU.ME].torrent 0 金币 13.70K 2037 次 2月前

#1楼
发帖时间:2024-02-20 22:29:40   |   回复数:0
游客组