Asuka601
隐世仙人♂

[2022] [日本] [剧情] [BD-1080P] 爱情生活[中文字幕].Love.Life.2022.1080p.BluRay.x265.10bit.DTS-SONYHD 6.33GB

-->

完整标题:爱情生活[中文字幕].Love.Life.2022.1080p.BluRay.x265.10bit.DTS-SONYHD 6.33GB



◎标  题 爱情生活
◎译  名 还有爱的日子(台)
◎片  名 Love Life
◎年  代 2022
◎产  地 日本 / 法国 / 韩国
◎类  别 剧情
◎语  言 日语
◎上映日期 2022-09-05(威尼斯电影节) / 2022-09-09(日本)
◎IMDb评分 7/10 (1304人评价)
◎IMDb链接 https://www.imdb.com/title/tt18235306/
◎豆瓣评分 6.8/10 (2990人评价)
◎豆瓣链接 https://movie.douban.com/subject/35740821/
◎片  长 123分钟
◎导  演 深田晃司 Kôji Fukada
◎编  剧 深田晃司 Kôji Fukada
      矢野显子 Akiko Yano
◎演  员 木村文乃 Fumino Kimura
      永山绚斗 Kento Nagayama
      山崎纮菜 Hirona Yamazaki
      神野三铃 Misuzu Kanno
      田口智朗 Tomorowo Taguchi
      三户夏芽 Natsume Mito
      福永朱梨 Akari Fukunaga
      森崎温 Win Morisaki
      岛田铁太 Tetta Shimada

◎简  介
    妙子与再婚的丈夫二郎以及儿子敬太原本过着平静而幸福的生活,然而曾一度失踪的聋哑前夫的突然出现,让妙子做出了一个意想不到的抉择。曾以《临渊而立》斩获2016年戛纳电影节一种关注单元评委会奖的深田晃司,以女歌手矢野显子的一首同名歌曲为灵感,创作出了这个精彩绝伦的故事。影片至始至终伴随着交流的障碍、行为的不可理解性,擅长叙事的深田晃司以丰富的隐喻和层层递进的强烈戏剧冲突,呈现出他对于爱与人性本质的思考与诠释。入围2022年威尼斯电影节主竞赛单元。

点击图片可查看大图

软字幕无法在截图上展现,HDR版本/杜比视界版本截图会出现颜色异常,请使用支持的设备播放!

##### MediaInfo ######
General
Unique ID : 110154473085806962827357547412609191195 (0x52DEFAD5A44DCDDCF3F1F67CBA3A4D1B)
Complete name : Love.Life.2022.1080p.BluRay.x265.10bit.DTS-SONYHD.mkv
Duration : 2 h 3 min
Overall bit rate : 7 333 kb/s

Video
ID : 1
Format : HEVC
Format/Info : High Efficiency Video Coding
Format profile : Main 10@L5@Main
Codec ID : V_MPEGH/ISO/HEVC
Duration : 2 h 3 min
Bit rate : 5 809 kb/s
Width : 1 788 pixels
Height : 1 080 pixels
Display aspect ratio : 5:3
Frame rate mode : Constant
Frame rate : 24.000 FPS
Color space : YUV
Chroma subsampling : 4:2:0
Bit depth : 10 bits
Bits/(Pixel*Frame) : 0.125
Stream size : 5.01 GiB (79%)
Writing library : x265 3.5g2b25c9ba0+45:[Windows][GCC 10.2.0][64 bit] Yuuki 10bit+8bit+12bit
Encoding settings : rc=crf / crf=16.0000 / qcomp=0.70 / qpstep=4 / stats-write=0 / stats-read=0 / no-lossless / no-cu-lossless / aq-mode=3 / aq-strength=0.80 / cbqpoffs=0 / crqpoffs=0 / ipratio=1.40 / pbratio=1.30 / psy-rd=2.00 / psy-rdoq=0.00 / deblock=0:0 / ref=6 / limit-refs=1 / no-limit-modes / bframes=7 / b-adapt=2 / bframe-bias=0 / b-pyramid / b-intra / weightp / weightb / min-keyint=24 / max-keyint=240 / rc-lookahead=24 / gop-lookahead=0 / scenecut=40 / hist-scenecut=0 / radl=0 / max-cu-size=64 / min-cu-size=8 / me=3 / subme=7 / merange=48 / rdoq-level=0 / rd=4 / rdpenalty=0 / dynamic-rd=0.00 / no-rd-refine / ----- / cutree / sao / no-rect / no-amp / no-open-gop / wpp / no-pmode / no-pme / no-psnr / no-ssim / nr-intra=0 / nr-inter=0 / no-constrained-intra / no-strong-intra-smoothing / max-tu-size=32 / tu-inter-depth=1 / tu-intra-depth=1 / limit-tu=0 / qg-size=32 / qpmax=69 / qpmin=0 / ----- / cpuid=1111039 / frame-threads=4 / numa-pools=+ / log-level=2 / input-csp=1 / input-res=1788x1080 / interlace=0 / level-idc=0 / high-tier=1 / uhd-bd=0 / no-allow-non-conformance / no-repeat-headers / aud / no-hrd / info / hash=0 / no-temporal-layers / lookahead-slices=0 / no-splice / no-intra-refresh / no-ssim-rd / signhide / no-tskip / max-merge=3 / temporal-mvp / no-frame-dup / no-hme / no-analyze-src-pics / no-sao-non-deblock / selective-sao=4 / early-skip / rskip / no-fast-intra / no-tskip-fast / no-splitrd-skip / zone-count=0 / no-strict-cbr / no-rc-grain / no-const-vbv / sar=0 / overscan=0 / videoformat=5 / range=0 / colorprim=2 / transfer=2 / colormatrix=2 / chromaloc=0 / display-window=0 / cll=0,0 / min-luma=0 / max-luma=1023 / log2-max-poc-lsb=8 / vui-timing-info / vui-hrd-info / slices=1 / no-opt-qp-pps / no-opt-ref-list-length-pps / no-multi-pass-opt-rps / scenecut-bias=0.05 / hist-threshold=0.03 / no-opt-cu-delta-qp / no-aq-motion / no-hdr10 / no-hdr10-opt / no-dhdr10-opt / no-idr-recovery-sei / analysis-reuse-level=0 / analysis-save-reuse-level=0 / analysis-load-reuse-level=0 / scale-factor=0 / refine-intra=0 / refine-inter=0 / refine-mv=1 / refine-ctu-distortion=0 / no-limit-sao / ctu-info=0 / no-lowpass-dct / refine-analysis-type=0 / copy-pic=1 / max-ausize-factor=1.0 / no-dynamic-refine / no-single-sei / no-hevc-aq / no-svt / no-field / qp-adaptation-range=1.00 / scenecut-aware-qp=0conformance-window-offsets / right=0 / bottom=0 / decoder-max-rate=0 / no-vbv-live-multi-pass
Language : English
Default : Yes
Forced : No

Audio
ID : 2
Format : DTS
Format/Info : Digital Theater Systems
Codec ID : A_DTS
Duration : 2 h 3 min
Bit rate mode : Constant
Bit rate : 1 509 kb/s
Channel(s) : 6 channels
Channel layout : C L R Ls Rs LFE
Sampling rate : 48.0 kHz
Frame rate : 93.750 FPS (512 SPF)
Bit depth : 24 bits
Compression mode : Lossy
Stream size : 1.30 GiB (21%)
Title : ja
Language : Japanese
Default : Yes
Forced : No

Text #1
ID : 3
ID in the original source medium : 4613 (0x1205)
Format : PGS
Muxing mode : zlib
Codec ID : S_HDMV/PGS
Codec ID/Info : Picture based subtitle format used on BDs/HD-DVDs
Duration : 2 h 0 min
Bit rate : 14.5 kb/s
Frame rate : 0.230 FPS
Count of elements : 1664
Stream size : 12.5 MiB (0%)
Title : chs
Language : Chinese
Default : Yes
Forced : No
Original source medium : Blu-ray

Text #2
ID : 4
ID in the original source medium : 4614 (0x1206)
Format : PGS
Muxing mode : zlib
Codec ID : S_HDMV/PGS
Codec ID/Info : Picture based subtitle format used on BDs/HD-DVDs
Duration : 2 h 0 min
Bit rate : 14.6 kb/s
Frame rate : 0.230 FPS
Count of elements : 1664
Stream size : 12.6 MiB (0%)
Title : cht
Language : Chinese
Default : No
Forced : No
Original source medium : Blu-ray

Menu
00:00:00.000 : en:Chapter 01
00:11:07.750 : en:Chapter 02
00:24:51.625 : en:Chapter 03
00:35:23.625 : en:Chapter 04
00:50:06.375 : en:Chapter 05
01:00:34.625 : en:Chapter 06
01:13:22.875 : en:Chapter 07
01:23:35.375 : en:Chapter 08
01:37:24.750 : en:Chapter 09
01:50:40.000 : en:Chapter 10
02:00:02.750 : en:Chapter 11


部分资源为软字幕,移动端推荐播放器:MxPlayer,nPlayer,infuse ,其他播放器请自行尝试。

部分资源为软字幕,电脑端推荐播放器:PotPlayer,完美解码,KMPLAYER,其他播放器请自行尝试。



1 个附件 售价 大小 下载 时间

Love.Life.2022.1080p.BluRay.x265.10bit.DTS-SONYHD[1LOU.ME].torrent 0 金币 18.68K 1708 次 2月前

#1楼
发帖时间:2024-02-19 19:12:41   |   回复数:0
游客组