Asuka601
隐世仙人♂

[2016] [日本] [剧情] [BD-1080P] 错乱的一代[中文字幕].Destruction.Babies.2016.BluRay.1080p.AAC2.0.x264-DreamHD 3.17GB

-->

完整标题:错乱的一代[中文字幕].Destruction.Babies.2016.BluRay.1080p.AAC2.0.x264-DreamHD 3.17GB



◎标  题 错乱的一代
◎译  名 失序男孩(台) / 喧嘩の凡て / All About Fighting / Destruction Babies
◎片  名 ディストラクション・ベイビーズ
◎年  代 2016
◎产  地 日本
◎类  别 剧情 / 犯罪
◎语  言 日语
◎上映日期 2016-05-21(日本)
◎IMDb评分 5.9/10 (902人评价)
◎IMDb链接 https://www.imdb.com/title/tt4912452/
◎豆瓣评分 6.9/10 (11057人评价)
◎豆瓣链接 https://movie.douban.com/subject/26418093/
◎片  长 108分钟
◎导  演 真利子哲也 Tetsuya Mariko
◎编  剧 真利子哲也 Tetsuya Mariko
      喜安浩平 Kohei Kiyasu
◎演  员 柳乐优弥 Yûya Yagira
      菅田将晖 Masaki Suda
      小松菜奈 Nana Komatsu
      村上虹郎 Nijiro Murakami
      绪方义博 Denden
      池松壮亮 Sosuke Ikematsu
      岩濑亮 Ryo Iwase
      北村匠海 Takumi Kitamura
      三浦诚己 Masaki Miura
      冈山天音 Okayama Amane
      郑龙进 Ryushin Tei
      吉村界人 Kaito Yoshimura
      王奕瑾 Yijin Wang

◎简  介
    故事发生在爱媛县松山市西部的小港口城市三津滨,失去了父母的内芦原泰良(柳乐优弥 饰)和弟弟将太(村上虹郎 饰)相依为命。对泰良来说,人生仿佛没有任何指望,只有全速奔走直至毁灭而已。在造船厂工作的泰良在一次暴力冲突后,决然地离开了港口。他辗转来到松山市区,一脸戾气的青年随时处于搏杀的状态,凡是看不过眼的人他都敢于挥拳相向,甚至被揍也全部畏惧。在这一过程中,小混混北原裕也(菅田将晖 饰)被泰良狼一般的行径所感染,于是热情过度地跟在了泰良的后边。无差别的殴斗,即使惹上黑社会也在所不惜。这是一段奔向灭亡的危险之旅……   本片根据真实事件改编,荣获2016年电影旬报十佳影片第四名。

点击图片可查看大图

软字幕无法在截图上展现,HDR版本/杜比视界版本截图会出现颜色异常,请使用支持的设备播放!

##### MediaInfo ######
General
Complete name : Destruction.Babies.2016.BluRay.1080p.iPad.AAC2.0.x264-DreamHD.mp4
Duration : 1 h 48 min
Overall bit rate : 4 199 kb/s

Video
ID : 1
Format : AVC
Format/Info : Advanced Video Codec
Format profile : [email protected]
Format settings : 5 Ref Frames
Format settings, CABAC : No
Format settings, Reference frames : 5 frames
Codec ID : avc1
Codec ID/Info : Advanced Video Coding
Duration : 1 h 48 min
Bit rate : 3 998 kb/s
Width : 1 920 pixels
Height : 1 080 pixels
Display aspect ratio : 16:9
Frame rate mode : Variable
Frame rate : 23.976 (24000/1001) FPS
Minimum frame rate : 23.974 FPS
Maximum frame rate : 23.981 FPS
Color space : YUV
Chroma subsampling : 4:2:0
Bit depth : 8 bits
Scan type : Progressive
Bits/(Pixel*Frame) : 0.080
Stream size : 3.02 GiB (95%)
Writing library : x264 core 164 r3100 ed0f7a6
Encoding settings : cabac=0 / ref=5 / deblock=0:0:0 / analyse=0x1:0x111 / me=hex / subme=8 / psy=1 / psy_rd=1.00:0.00 / mixed_ref=1 / me_range=16 / chroma_me=1 / trellis=2 / 8x8dct=0 / cqm=0 / deadzone=21,11 / fast_pskip=1 / chroma_qp_offset=-2 / threads=24 / lookahead_threads=4 / sliced_threads=0 / nr=0 / decimate=1 / interlaced=0 / bluray_compat=0 / constrained_intra=0 / bframes=3 / b_pyramid=2 / b_adapt=1 / b_bias=0 / direct=3 / weightb=0 / open_gop=0 / weightp=0 / keyint=240 / keyint_min=24 / scenecut=40 / intra_refresh=0 / rc_lookahead=50 / rc=2pass / mbtree=1 / bitrate=4000 / ratetol=1.0 / qcomp=0.60 / qpmin=0 / qpmax=69 / qpstep=4 / cplxblur=20.0 / qblur=0.5 / vbv_maxrate=800000 / vbv_bufsize=800000 / nal_hrd=none / filler=0 / ip_ratio=1.40 / aq=1:1.00
Encoded date : UTC 2024-02-08 02:11:29
Tagged date : UTC 2024-02-08 02:11:29
Color range : Limited
Color primaries : BT.709
Transfer characteristics : BT.709
Matrix coefficients : BT.709
Menus : 3
mdhd_Duration : 6480098
Codec configuration box : avcC

Audio
ID : 2
Format : AAC LC
Format/Info : Advanced Audio Codec Low Complexity
Codec ID : mp4a-40-2
Duration : 1 h 48 min
Source duration : 1 h 48 min
Bit rate mode : Constant
Bit rate : 192 kb/s
Channel(s) : 2 channels
Channel layout : L R
Sampling rate : 48.0 kHz
Frame rate : 46.875 FPS (1024 SPF)
Compression mode : Lossy
Stream size : 150 MiB (5%)
Source stream size : 150 MiB (5%)
Title : Stereo
Language : Japanese
Default : Yes
Alternate group : 1
Encoded date : UTC 2024-02-08 02:11:29
Tagged date : UTC 2024-02-08 02:11:29
Menus : 3

Menu
ID : 3
Format : Timed Text
Codec ID : text
Duration : 1 h 48 min
Language : English
Encoded date : UTC 2024-02-08 02:11:29
Tagged date : UTC 2024-02-08 02:11:29
Menu For : 1,2
00:00:00.000 : Chapter 1
00:12:09.145 : Chapter 2
00:24:48.696 : Chapter 3
00:34:41.413 : Chapter 4
00:45:49.455 : Chapter 5
00:55:38.210 : Chapter 6
01:09:23.534 : Chapter 7
01:21:22.419 : Chapter 8
01:28:31.640 : Chapter 9
01:38:11.886 : Chapter 10


部分资源为软字幕,移动端推荐播放器:MxPlayer,nPlayer,infuse ,其他播放器请自行尝试。

部分资源为软字幕,电脑端推荐播放器:PotPlayer,完美解码,KMPLAYER,其他播放器请自行尝试。



1 个附件 售价 大小 下载 时间

Destruction.Babies.2016.BluRay.1080p.AAC2.0.x264-DreamHD[1LOU.ME].torrent 0 金币 10.87K 1603 次 2月前

#1楼
发帖时间:2024-02-14 13:19:09   |   回复数:0
游客组