Asuka601
隐世仙人♂

[2012] [日本] [剧情] [BD-1080P] 浪客剑心[粤英日多音轨/简繁英字幕].Rurouni.Kenshin.Origins.1080p.BluRay.x265.10bit.DTS.2Audio-SO

-->

完整标题:浪客剑心[粤英日多音轨/简繁英字幕].Rurouni.Kenshin.Origins.1080p.BluRay.x265.10bit.DTS.2Audio-SONYHD 10.85GB



◎标  题 浪客剑心
◎译  名 神剑闯江湖(台) / Rurôni Kenshin: Meiji kenkaku roman tan
◎片  名 るろうに剣心
◎年  代 2012
◎产  地 日本
◎类  别 剧情 / 动作 / 古装
◎语  言 日语
◎上映日期 2012-08-25(日本)
◎IMDb评分 7.4/10 (27533人评价)
◎IMDb链接 https://www.imdb.com/title/tt1979319/
◎豆瓣评分 8.1/10 (90109人评价)
◎豆瓣链接 https://movie.douban.com/subject/6558801/
◎片  长 134分钟
◎导  演 大友启史 Keishi Ohtomo
◎编  剧 大友启史 Keishi Ohtomo
      和月伸宏 Nobuhiro Watsuki
      藤井清美 Kiyomi Fujii
◎演  员 佐藤健 Takeru Satoh
      武井咲 Emi Takei
      吉川晃司 Kôji Kikkawa
      苍井优 Yu Aoi
      青木崇高 Munetaka Aoki
      绫野刚 Gô Ayano
      田中伟登 Taketo Tanaka
      奥田瑛二 Eiji Okuda
      江口洋介 Yôsuke Eguchi
      香川照之 Teruyuki Kagawa
      平田薰 Kaoru Hirata
      宫川一朗太 Ichirôta Miyakawa
      深水元基 Motoki Fukami
      有福正志 Masashi Arifuku
      本田大辅 Daisuke Honda
      阿南敦子 Atsuko Anan
      斋藤洋介 Yôsuke Saitô
      须藤元气 Genki Sudô
      高久千草 Chigusa Takaku
      永野芽郁 Mei Nagano
      落合扶树 Motoki Ochiai
      洼田正孝 Masataka Kubota
      松尾谕 Satoru Matsuo
      矢柴俊博 Toshihiro Yashiba
      山崎润 Jun Yamasaki

◎简  介
    经历了动荡的明治维新,日本迎来新的时代。在明治政府第十个年头,不祥的气息弥漫东京。恶德实业家武田观柳(香川照之 饰)操纵女医师高荷惠(苍井优 饰)研制新型鸦片,公开招揽落魄武夫,大肆收购周边土地,有条不紊地实现他的狼子野心。在此期间,以刽子手拔刀斋之名滥杀无辜的鹈堂刃卫(吉川晃司 饰)引起了前新選组头目斋藤一(江口洋介 饰)的注意,也迫令隐姓埋名多年的拔刀斋本尊绯村剑心(佐藤健 饰)登场。寄居在神谷道场的绯村渐渐融入神谷薫(武井咲 饰)和周边庶民的平和生活之中。然而武田欲壑难平,为了保护善良的人,剑心不得不拔出逆刃刀和相乐佐之助(青木崇高 饰)勇闯虎穴……   本片根据漫画家和月伸宏的经典原作改编。

点击图片可查看大图

软字幕无法在截图上展现,HDR版本/杜比视界版本截图会出现颜色异常,请使用支持的设备播放!

##### MediaInfo ######
General
Unique ID : 163180024346824002508243256881548757301 (0x7AC3545B8607D91D265FA841FD920935)
Complete name : Rurouni.Kenshin.Origins.1080p.BluRay.x265.10bit.DTS.2Audio-SONYHD.mkv
Duration : 2 h 14 min
Overall bit rate : 11.6 Mb/s

Video
ID : 1
Format : HEVC
Format/Info : High Efficiency Video Coding
Format profile : Main 10@L4@Main
Codec ID : V_MPEGH/ISO/HEVC
Duration : 2 h 14 min
Bit rate : 8 483 kb/s
Width : 1 916 pixels
Height : 804 pixels
Display aspect ratio : 2.40:1
Frame rate mode : Constant
Frame rate : 23.976 (24000/1001) FPS
Color space : YUV
Chroma subsampling : 4:2:0
Bit depth : 10 bits
Bits/(Pixel*Frame) : 0.230
Stream size : 7.97 GiB (73%)
Writing library : x265 3.5g2b25c9ba0+45:[Windows][GCC 10.2.0][64 bit] Yuuki 10bit+8bit+12bit
Encoding settings : rc=crf / crf=15.0000 / qcomp=0.60 / qpstep=4 / stats-write=0 / stats-read=0 / no-lossless / no-cu-lossless / aq-mode=3 / aq-strength=0.80 / cbqpoffs=0 / crqpoffs=0 / ipratio=1.40 / pbratio=1.30 / psy-rd=2.00 / psy-rdoq=0.00 / deblock=0:0 / ref=6 / limit-refs=1 / no-limit-modes / bframes=8 / b-adapt=2 / bframe-bias=0 / b-pyramid / b-intra / weightp / weightb / min-keyint=24 / max-keyint=240 / rc-lookahead=24 / gop-lookahead=0 / scenecut=40 / hist-scenecut=0 / radl=0 / max-cu-size=64 / min-cu-size=8 / me=3 / subme=7 / merange=48 / rdoq-level=0 / rd=4 / rdpenalty=0 / dynamic-rd=0.00 / no-rd-refine / ----- / cutree / sao / no-rect / no-amp / no-open-gop / wpp / no-pmode / no-pme / no-psnr / no-ssim / nr-intra=0 / nr-inter=0 / no-constrained-intra / no-strong-intra-smoothing / max-tu-size=32 / tu-inter-depth=1 / tu-intra-depth=1 / limit-tu=0 / qg-size=32 / qpmax=69 / qpmin=0 / ----- / cpuid=1111039 / frame-threads=5 / numa-pools=+ / log-level=2 / input-csp=1 / input-res=1916x804 / interlace=0 / level-idc=0 / high-tier=1 / uhd-bd=0 / no-allow-non-conformance / no-repeat-headers / aud / no-hrd / info / hash=0 / no-temporal-layers / lookahead-slices=0 / no-splice / no-intra-refresh / no-ssim-rd / signhide / no-tskip / max-merge=3 / temporal-mvp / no-frame-dup / no-hme / no-analyze-src-pics / no-sao-non-deblock / selective-sao=4 / early-skip / rskip / no-fast-intra / no-tskip-fast / no-splitrd-skip / zone-count=0 / no-strict-cbr / no-rc-grain / no-const-vbv / sar=0 / overscan=0 / videoformat=5 / range=0 / colorprim=2 / transfer=2 / colormatrix=2 / chromaloc=0 / display-window=0 / cll=0,0 / min-luma=0 / max-luma=1023 / log2-max-poc-lsb=8 / vui-timing-info / vui-hrd-info / slices=1 / no-opt-qp-pps / no-opt-ref-list-length-pps / no-multi-pass-opt-rps / scenecut-bias=0.05 / hist-threshold=0.03 / no-opt-cu-delta-qp / no-aq-motion / no-hdr10 / no-hdr10-opt / no-dhdr10-opt / no-idr-recovery-sei / analysis-reuse-level=0 / analysis-save-reuse-level=0 / analysis-load-reuse-level=0 / scale-factor=0 / refine-intra=0 / refine-inter=0 / refine-mv=1 / refine-ctu-distortion=0 / no-limit-sao / ctu-info=0 / no-lowpass-dct / refine-analysis-type=0 / copy-pic=1 / max-ausize-factor=1.0 / no-dynamic-refine / no-single-sei / no-hevc-aq / no-svt / no-field / qp-adaptation-range=1.00 / scenecut-aware-qp=0conformance-window-offsets / right=0 / bottom=0 / decoder-max-rate=0 / no-vbv-live-multi-pass
Language : English
Default : Yes
Forced : No

Audio #1
ID : 2
Format : DTS
Format/Info : Digital Theater Systems
Codec ID : A_DTS
Duration : 2 h 14 min
Bit rate mode : Constant
Bit rate : 1 510 kb/s
Channel(s) : 6 channels
Channel layout : C L R Ls Rs LFE
Sampling rate : 48.0 kHz
Frame rate : 93.750 FPS (512 SPF)
Bit depth : 24 bits
Compression mode : Lossy
Stream size : 1.42 GiB (13%)
Language : Japanese
Default : Yes
Forced : No

Audio #2
ID : 3
Format : DTS
Format/Info : Digital Theater Systems
Codec ID : A_DTS
Duration : 2 h 14 min
Bit rate mode : Constant
Bit rate : 1 510 kb/s
Channel(s) : 6 channels
Channel layout : C L R Ls Rs LFE
Sampling rate : 48.0 kHz
Frame rate : 93.750 FPS (512 SPF)
Bit depth : 24 bits
Compression mode : Lossy
Stream size : 1.42 GiB (13%)
Title : Cantonese
Language : Chinese
Default : Yes
Forced : No

Text #1
ID : 4
ID in the original source medium : 4610 (0x1202)
Format : PGS
Muxing mode : zlib
Codec ID : S_HDMV/PGS
Codec ID/Info : Picture based subtitle format used on BDs/HD-DVDs
Duration : 2 h 14 min
Bit rate : 26.8 kb/s
Frame rate : 0.323 FPS
Count of elements : 2597
Stream size : 25.8 MiB (0%)
Title : chs&jpn
Language : Chinese
Default : Yes
Forced : No
Original source medium : Blu-ray

Text #2
ID : 5
ID in the original source medium : 4611 (0x1203)
Format : PGS
Muxing mode : zlib
Codec ID : S_HDMV/PGS
Codec ID/Info : Picture based subtitle format used on BDs/HD-DVDs
Duration : 2 h 14 min
Bit rate : 27.0 kb/s
Frame rate : 0.323 FPS
Count of elements : 2597
Stream size : 25.9 MiB (0%)
Title : cht&jpn
Language : Chinese
Default : No
Forced : No
Original source medium : Blu-ray

Text #3
ID : 6
ID in the original source medium : 4612 (0x1204)
Format : PGS
Muxing mode : zlib
Codec ID : S_HDMV/PGS
Codec ID/Info : Picture based subtitle format used on BDs/HD-DVDs
Duration : 2 h 14 min
Bit rate : 18.8 kb/s
Frame rate : 0.323 FPS
Count of elements : 2597
Stream size : 18.0 MiB (0%)
Title : chs
Language : Chinese
Default : No
Forced : No
Original source medium : Blu-ray

Text #4
ID : 7
ID in the original source medium : 4613 (0x1205)
Format : PGS
Muxing mode : zlib
Codec ID : S_HDMV/PGS
Codec ID/Info : Picture based subtitle format used on BDs/HD-DVDs
Duration : 2 h 14 min
Bit rate : 18.9 kb/s
Frame rate : 0.323 FPS
Count of elements : 2597
Stream size : 18.1 MiB (0%)
Title : cht
Language : Chinese
Default : No
Forced : No
Original source medium : Blu-ray

Text #5
ID : 8
ID in the original source medium : 4609 (0x1201)
Format : PGS
Muxing mode : zlib
Codec ID : S_HDMV/PGS
Codec ID/Info : Picture based subtitle format used on BDs/HD-DVDs
Duration : 2 h 8 min
Bit rate : 14.6 kb/s
Frame rate : 0.245 FPS
Count of elements : 1894
Stream size : 13.5 MiB (0%)
Language : English
Default : No
Forced : No
Original source medium : Blu-ray

Menu
00:00:00.000 : en:Chapter 01
00:12:39.842 : en:Chapter 02
00:21:38.588 : en:Chapter 03
00:33:18.246 : en:Chapter 04
00:44:20.407 : en:Chapter 05
00:55:56.895 : en:Chapter 06
01:07:32.048 : en:Chapter 07
01:18:42.634 : en:Chapter 08
01:28:11.995 : en:Chapter 09
01:37:40.938 : en:Chapter 10
01:51:49.411 : en:Chapter 11
02:06:10.563 : en:Chapter 12


部分资源为软字幕,移动端推荐播放器:MxPlayer,nPlayer,infuse ,其他播放器请自行尝试。

部分资源为软字幕,电脑端推荐播放器:PotPlayer,完美解码,KMPLAYER,其他播放器请自行尝试。



1 个附件 售价 大小 下载 时间

Rurouni.Kenshin.Origins.1080p.BluRay.x265.10bit.DTS.2Audio-SONYHD[1LOU.ME].torrent 0 金币 30.04K 2219 次 2月前

#1楼
发帖时间:2024-02-12 18:20:37   |   回复数:2
kola13
武林盟主
感谢分享
2月前 #2楼
jokingcheung
超凡入圣№
谢谢分享
1月前 #3楼
游客组