Asuka601
隐世仙人♂

[更 早] [日本] [剧情] [BD-1080P] 人证[国语配音/中文字幕].Proof.of.The.Man.1977.BluRay.1080p.AAC2.0.x264-DreamHD 3.89GB

-->

完整标题:人证[国语配音/中文字幕].Proof.of.The.Man.1977.BluRay.1080p.AAC2.0.x264-DreamHD 3.89GB



◎标  题 人证
◎译  名 人性的证明 / にんげんのしょうめい / Proof of the Man
◎片  名 人間の証明
◎年  代 1977
◎产  地 日本 / 美国
◎类  别 剧情 / 犯罪
◎语  言 英语 / 日语
◎上映日期 1979-10(中国大陆) / 1977-10-08(日本)
◎IMDb评分 6.6/10 (420人评价)
◎IMDb链接 https://www.imdb.com/title/tt0076460/
◎豆瓣评分 8.2/10 (10055人评价)
◎豆瓣链接 https://movie.douban.com/subject/1291861/
◎片  长 132分钟
◎导  演 佐藤纯弥 Jun'ya Satô
◎编  剧 森村诚一 Seiichi Morimura
      松山善三 Zenzo Matsuyama
◎演  员 冈田茉莉子 Mariko Okada
      松田优作 Yusaku Matsuda
      鼻肇 Hajime Hana
      乔山中 Joe Yamanaka
      岩城滉一 Kouichi Iwaki
      三船敏郎 Toshirô Mifune
      鹤田浩二 Koji Tsuruta
      竹下景子 Keiko Takeshita
      伴淳三郎 Junzaburô Ban
      高泽顺子 Junko Takazawa
      范文雀 Bunjaku Han
      夏八木勋 Isao Natsuyagi
      长门裕之 Hiroyuki Nagato
      珍妮八田 Janet Hatta
      坂口良子 Ryoko Sakaguchi
      大泷秀治 Hideji Ôtaki
      佐藤蛾次郎 Gajiro Satoh
      北林谷荣 Tanie Kitabayashi
      西川峰子 Mineko Nishikawa
      铃木瑞穗 Mizuho Suzuki
      峰岸彻 Tôru Minegishi
      地井武男 Takeo Chii
      和田浩治 Koji Wada
      深作欣二 Kinji Fukasaku
      乔治·肯尼迪 George Kennedy
      布罗德里克·克劳福德 Broderick Crawford
      渡边文雄 Fumio Watanabe
      片冈五郎 Kataoka Gorō
      室田日出男 Hideo Murota
      小林稔侍 Nenji Kobayashi

◎简  介
    死于东京皇家饭店电梯里的美国黑人青年被人发现后,警方展开调查,从死者遗物中,知晓其名叫焦尼,并推断其来日目的是为找寻生母。根据种种线索,警方来到某温泉,发现知情人已被杀害,但还是知晓了知名服装设计师八杉恭子(冈田茉莉子)当年曾与一美国黑人士兵在此同居之事,遂派警官栋居(松田优作)前去美国向纽约警察肖夫坦(乔治•肯尼迪)求证。   求证过程中,栋居陷入历史记忆与民族情结中,几欲将眼前的美国人尤其肖夫坦与当年在日本犯下罪行的刽子手混为一谈,但终回复理智完成了任务,将八杉恭子圈定为凶手,而八杉恭子不过也是历史的受害者。

点击图片可查看大图

软字幕无法在截图上展现,HDR版本/杜比视界版本截图会出现颜色异常,请使用支持的设备播放!

##### MediaInfo ######
General
Complete name : Proof.of.The.Man.1977.BluRay.1080p.iPad.AAC2.0.x264-DreamHD.mp4
Duration : 2 h 12 min
Overall bit rate : 4 198 kb/s

Video
ID : 1
Format : AVC
Format/Info : Advanced Video Codec
Format profile : [email protected]
Format settings : 5 Ref Frames
Format settings, CABAC : No
Format settings, Reference frames : 5 frames
Codec ID : avc1
Codec ID/Info : Advanced Video Coding
Duration : 2 h 12 min
Bit rate : 4 001 kb/s
Width : 1 920 pixels
Height : 1 080 pixels
Display aspect ratio : 16:9
Frame rate mode : Variable
Frame rate : 23.976 (24000/1001) FPS
Minimum frame rate : 23.974 FPS
Maximum frame rate : 23.981 FPS
Color space : YUV
Chroma subsampling : 4:2:0
Bit depth : 8 bits
Scan type : Progressive
Bits/(Pixel*Frame) : 0.080
Stream size : 3.71 GiB (95%)
Writing library : x264 core 164 r3100 ed0f7a6
Encoding settings : cabac=0 / ref=5 / deblock=0:0:0 / analyse=0x1:0x111 / me=hex / subme=8 / psy=1 / psy_rd=1.00:0.00 / mixed_ref=1 / me_range=16 / chroma_me=1 / trellis=2 / 8x8dct=0 / cqm=0 / deadzone=21,11 / fast_pskip=1 / chroma_qp_offset=-2 / threads=24 / lookahead_threads=4 / sliced_threads=0 / nr=0 / decimate=1 / interlaced=0 / bluray_compat=0 / constrained_intra=0 / bframes=3 / b_pyramid=2 / b_adapt=1 / b_bias=0 / direct=3 / weightb=0 / open_gop=0 / weightp=0 / keyint=240 / keyint_min=24 / scenecut=40 / intra_refresh=0 / rc_lookahead=50 / rc=2pass / mbtree=1 / bitrate=4000 / ratetol=1.0 / qcomp=0.60 / qpmin=0 / qpmax=69 / qpstep=4 / cplxblur=20.0 / qblur=0.5 / vbv_maxrate=800000 / vbv_bufsize=800000 / nal_hrd=none / filler=0 / ip_ratio=1.40 / aq=1:1.00
Encoded date : UTC 2024-02-05 00:31:57
Tagged date : UTC 2024-02-05 00:31:57
Color range : Limited
Color primaries : BT.709
Transfer characteristics : BT.709
Matrix coefficients : BT.709
Menus : 3
mdhd_Duration : 7964290
Codec configuration box : avcC

Audio
ID : 2
Format : AAC LC
Format/Info : Advanced Audio Codec Low Complexity
Codec ID : mp4a-40-2
Duration : 2 h 12 min
Source duration : 2 h 12 min
Bit rate mode : Constant
Bit rate : 192 kb/s
Channel(s) : 2 channels
Channel layout : L R
Sampling rate : 48.0 kHz
Frame rate : 46.875 FPS (1024 SPF)
Compression mode : Lossy
Stream size : 182 MiB (5%)
Source stream size : 182 MiB (5%)
Title : Stereo
Language : Japanese
Default : Yes
Alternate group : 1
Encoded date : UTC 2024-02-05 00:31:57
Tagged date : UTC 2024-02-05 00:31:57
Menus : 3

Menu
ID : 3
Format : Timed Text
Codec ID : text
Duration : 2 h 12 min
Language : English
Encoded date : UTC 2024-02-05 00:31:57
Tagged date : UTC 2024-02-05 00:31:57
Bit rate mode : CBR
Menu For : 1,2
00:00:00.000 : 第 01 章
00:03:45.726 : 第 02 章
00:08:30.010 : 第 03 章
00:13:53.458 : 第 04 章
00:24:29.969 : 第 05 章
00:27:28.647 : 第 06 章
00:32:39.291 : 第 07 章
00:37:28.288 : 第 08 章
00:43:46.457 : 第 09 章
00:51:28.961 : 第 10 章
00:55:43.715 : 第 11 章
00:59:24.061 : 第 12 章
01:05:03.775 : 第 13 章
01:18:18.527 : 第 14 章
01:27:21.111 : 第 15 章
01:39:49.984 : 第 16 章
01:49:14.173 : 第 17 章
02:00:04.698 : 第 18 章
02:12:29.275 : 第 19 章
Bit rate mode : Constant


部分资源为软字幕,移动端推荐播放器:MxPlayer,nPlayer,infuse ,其他播放器请自行尝试。

部分资源为软字幕,电脑端推荐播放器:PotPlayer,完美解码,KMPLAYER,其他播放器请自行尝试。



1 个附件 售价 大小 下载 时间

Proof.of.The.Man.1977.BluRay.1080p.AAC2.0.x264-DreamHD[1LOU.ME].torrent 0 金币 12.67K 1323 次 2月前

#1楼
发帖时间:2024-02-08 19:02:22   |   回复数:2
jokingcheung
超凡入圣№
谢谢分享
2月前 #2楼
hljwsq
武林盟主
没有国语配音,做人要厚道
1月前 #3楼
游客组