Asuka601
隐世仙人♂

[更 早] [日本] [剧情] [BD-1080P] 野性的证明[中文字幕].Never.Give.Up.1978.BluRay.1080p.AAC2.0.x264-DreamHD 4.20GB

-->

完整标题:野性的证明[中文字幕].Never.Give.Up.1978.BluRay.1080p.AAC2.0.x264-DreamHD 4.20GB



◎标  题 野性的证明
◎译  名 Yasei no shômei / Never Give Up
◎片  名 野性の証明
◎年  代 1978
◎产  地 日本
◎类  别 剧情 / 动作 / 犯罪
◎语  言 日语
◎上映日期 1978-10-07(日本)
◎IMDb评分 6.1/10 (193人评价)
◎IMDb链接 https://www.imdb.com/title/tt0326436/
◎豆瓣评分 7.0/10 (715人评价)
◎豆瓣链接 https://movie.douban.com/subject/1472515/
◎片  长 143分钟
◎导  演 佐藤纯弥 Jun'ya Satô
◎编  剧 高田宏治 Kôji Takada
      森村诚一 Seiichi Morimura
◎演  员 高仓健 Ken Takakura
      中野良子 Ryoko Nakano
      夏八木勋 Isao Natsuyagi
      药师丸博子 Hiroko Yakushimaru
      田中邦卫 Kunie Tanaka
      三国连太郎 Rentarô Mikuni
      仓石功 Isao Kuraishi
      阿藤快 Kai Ato
      大泷秀治 Hideji Ôtaki
      丹波哲郎 Tetsurô Tanba
      乔山中 Joe Yamanaka
      Toshizô Kudô
      金子信雄 Nobuo Kaneko
      馆博 Hiroshi Tachi
      渡边文雄 Fumio Watanabe
      檜よしえ Yoshie Hinoki
      田村高广 Takahiro Tamura
      绘泽萠子 Moeko Ezawa
      佐藤织江 Orie Satoh
      成田三树夫 Mikio Narita
      鼻肇 Hajime Hana
      岛香织 Kaori Shima
      北林谷荣 Tanie Kitabayashi
      理查德·安德森 Richard Anderson
      松方弘树 Hiroki Matsukata
      梅宫辰夫 Tatsuo Umemiya
      芦田伸介 Shinsuke Ashida
      谷村昌彦 Mashahiko Tanimura
      夏夕介 Yusuke Natsu
      田口計 Kei Taguchi

◎简  介
    日本东北部,福岛县羽代市正在进行一系列河堤改造的建设,与此同时,离奇死亡案件相继发生。其中,《羽代日报》记者立川和黑帮分子川崎昭夫(梅宮辰夫 饰)的情妇被认为死于山路车祸,其同侪越智朋子(中野良子 饰)倍感蹊跷,偷偷展开独立调查。另一方面,保险公司也怀疑川崎有骗保之嫌,派出从自卫队特种部队退役的职员味泽越史(高倉健 饰)调查此事。味泽与朋子合作,却遭到川崎所在的中户组及其背后靠山大场一成(三國連太郎 饰)的联合阻挠。另一方面,刑警北野(夏八木勲 饰)在跟踪调查时发现,貌似不相识的味泽与朋子竟有着千丝万缕的联系,而他们的渊源更可追溯到1年前某山村部落发生的血腥惨剧……   本片根据森村誠一的同名原作改编,并荣获1979年每日电影读者选择奖。

点击图片可查看大图

软字幕无法在截图上展现,HDR版本/杜比视界版本截图会出现颜色异常,请使用支持的设备播放!

##### MediaInfo ######
General
Complete name : Never.Give.Up.1978.BluRay.1080p.iPad.AAC2.0.x264-DreamHD.mp4
Duration : 2 h 22 min
Overall bit rate : 4 203 kb/s

Video
ID : 1
Format : AVC
Format/Info : Advanced Video Codec
Format profile : [email protected]
Format settings : 5 Ref Frames
Format settings, CABAC : No
Format settings, Reference frames : 5 frames
Codec ID : avc1
Codec ID/Info : Advanced Video Coding
Duration : 2 h 22 min
Bit rate : 4 000 kb/s
Width : 1 920 pixels
Height : 1 080 pixels
Display aspect ratio : 16:9
Frame rate mode : Variable
Frame rate : 23.976 (24000/1001) FPS
Minimum frame rate : 23.974 FPS
Maximum frame rate : 23.981 FPS
Color space : YUV
Chroma subsampling : 4:2:0
Bit depth : 8 bits
Scan type : Progressive
Bits/(Pixel*Frame) : 0.080
Stream size : 4.00 GiB (95%)
Writing library : x264 core 164 r3100 ed0f7a6
Encoding settings : cabac=0 / ref=5 / deblock=0:0:0 / analyse=0x1:0x111 / me=hex / subme=8 / psy=1 / psy_rd=1.00:0.00 / mixed_ref=1 / me_range=16 / chroma_me=1 / trellis=2 / 8x8dct=0 / cqm=0 / deadzone=21,11 / fast_pskip=1 / chroma_qp_offset=-2 / threads=24 / lookahead_threads=4 / sliced_threads=0 / nr=0 / decimate=1 / interlaced=0 / bluray_compat=0 / constrained_intra=0 / bframes=3 / b_pyramid=2 / b_adapt=1 / b_bias=0 / direct=3 / weightb=0 / open_gop=0 / weightp=0 / keyint=240 / keyint_min=24 / scenecut=40 / intra_refresh=0 / rc_lookahead=50 / rc=2pass / mbtree=1 / bitrate=4000 / ratetol=1.0 / qcomp=0.60 / qpmin=0 / qpmax=69 / qpstep=4 / cplxblur=20.0 / qblur=0.5 / vbv_maxrate=800000 / vbv_bufsize=800000 / nal_hrd=none / filler=0 / ip_ratio=1.40 / aq=1:1.00
Encoded date : UTC 2024-02-03 01:17:10
Tagged date : UTC 2024-02-03 01:17:10
Color range : Limited
Color primaries : BT.709
Transfer characteristics : BT.709
Matrix coefficients : BT.709
Menus : 3
mdhd_Duration : 8579571
Codec configuration box : avcC

Audio
ID : 2
Format : AAC LC
Format/Info : Advanced Audio Codec Low Complexity
Codec ID : mp4a-40-2
Duration : 2 h 22 min
Source duration : 2 h 22 min
Bit rate mode : Constant
Bit rate : 192 kb/s
Channel(s) : 2 channels
Channel layout : L R
Sampling rate : 48.0 kHz
Frame rate : 46.875 FPS (1024 SPF)
Compression mode : Lossy
Stream size : 200 MiB (5%)
Source stream size : 200 MiB (5%)
Title : Stereo
Language : Japanese
Default : Yes
Alternate group : 1
Encoded date : UTC 2024-02-03 01:17:10
Tagged date : UTC 2024-02-03 01:17:10
Menus : 3

Menu
ID : 3
Format : Timed Text
Codec ID : text
Duration : 2 h 22 min
Language : English
Encoded date : UTC 2024-02-03 01:17:10
Tagged date : UTC 2024-02-03 01:17:10
Bit rate mode : CBR
Menu For : 1,2
00:00:00.000 : 第 01 章
00:16:32.700 : 第 02 章
00:24:33.389 : 第 03 章
00:33:28.340 : 第 04 章
00:50:03.584 : 第 05 章
01:02:30.330 : 第 06 章
01:20:05.009 : 第 07 章
01:30:10.238 : 第 08 章
01:43:32.665 : 第 09 章
02:00:21.089 : 第 10 章
02:09:47.863 : 第 11 章
02:19:50.048 : 第 12 章
Bit rate mode : Constant


部分资源为软字幕,移动端推荐播放器:MxPlayer,nPlayer,infuse ,其他播放器请自行尝试。

部分资源为软字幕,电脑端推荐播放器:PotPlayer,完美解码,KMPLAYER,其他播放器请自行尝试。



1 个附件 售价 大小 下载 时间

Never.Give.Up.1978.BluRay.1080p.AAC2.0.x264-DreamHD[1LOU.ME].torrent 0 金币 13.42K 1257 次 2月前

#1楼
发帖时间:2024-02-08 18:59:34   |   回复数:1
jokingcheung
超凡入圣№
谢谢分享
2月前 #2楼
游客组