Asuka601
隐世仙人♂

[2020] [日本] [剧情] [BD-1080P] 午夜天鹅[中文字幕].Midnight.Swan.2020.BluRay.1080p.DTS-HDMA5.1.x265.10bit-DreamHD 5.76GB

-->

完整标题:午夜天鹅[中文字幕].Midnight.Swan.2020.BluRay.1080p.DTS-HDMA5.1.x265.10bit-DreamHD 5.76GB



◎标  题 午夜天鹅
◎译  名 Midnight Swan
◎片  名 ミッドナイトスワン
◎年  代 2020
◎产  地 日本
◎类  别 剧情 / 同性
◎语  言 日语
◎上映日期 2020-09-25(日本)
◎IMDb评分 6.9/10 (659人评价)
◎IMDb链接 https://www.imdb.com/title/tt12774954/
◎豆瓣评分 7.6/10 (2570人评价)
◎豆瓣链接 https://movie.douban.com/subject/34858550/
◎片  长 124分钟
◎导  演 内田英治 Eiji Uchida
◎编  剧 内田英治 Eiji Uchida
◎演  员 草彅刚 Tsuyoshi Kusanagi
      服部树咲 Misaki Hattori
      田中俊介 Shunsuke Tanaka
      吉村界人 Kaito Yoshimura
      佐藤江梨子 Eriko Satô
      平山祐介 Yusuke Hirayama
      根岸季衣 Toshie Negishi
      水川麻美 Asami Mizukawa
      田口智朗 Tomorowo Taguchi
      真飞圣 Sei Matobu
      上田帆乃佳 Honoka Ueda
      堀田真三 Shinzô Hotta
      伊岛空 Kuu Izima
      池田良 Ryô Ikeda
      高木胜也 Katsuya Takagi
      大山真绘子 Maeko Oyama

◎简  介
    故郷の広島を離れた凪沙は、東京の新宿で衣装に身を包み、仲間と共にステージに立つ日々を送っている。そんなある日、凪沙は育児放棄にあっていた親戚の一果を預かることに。彼女と出会ったことで、孤独だった凪沙に今まで感じたことのない感情が芽生える。世界190カ国で配信されたNetflixドラマ『全裸監督』で脚光を浴びた内田英治監督がオリジナル脚本で挑む人間ドラマ。東京で孤独に生きていたトランスジェンダーの主人公・凪沙と、親から愛を注がれずに生きてきた少女・一果の出会いと関わりを通して、切なくも美しい現代の愛の形を描く。主演を『台風家族』などの草なぎ剛が務める。

##### MediaInfo ######
General
Unique ID : 241749195982889503262215734767661170053 (0xB5DF339945B07A020428BFDD55DD3D85)
Complete name : Midnight.Swan.2020.BluRay.1080p.DTS-HDMA5.1.x265.10bit-DreamHD.mkv
Duration : 2 h 4 min
Overall bit rate mode : Variable
Overall bit rate : 6 633 kb/s

Video
ID : 1
Format : HEVC
Format/Info : High Efficiency Video Coding
Format profile : Main [email protected]@High
Codec ID : V_MPEGH/ISO/HEVC
Duration : 2 h 4 min
Bit rate : 2 871 kb/s
Width : 1 920 pixels
Height : 1 036 pixels
Display aspect ratio : 1.85:1
Frame rate mode : Constant
Frame rate : 23.976 (24000/1001) FPS
Color space : YUV
Chroma subsampling : 4:2:0 (Type 2)
Bit depth : 10 bits
Bits/(Pixel*Frame) : 0.060
Stream size : 2.49 GiB (43%)
Writing library : x265 3.5+100-3dae0c3cc:[Windows][GCC 12.2.0][64 bit] 10bit
Encoding settings : cpuid=1111039 / frame-threads=4 / numa-pools=16 / wpp / no-pmode / no-pme / no-psnr / no-ssim / log-level=2 / input-csp=1 / input-res=1920x1036 / interlace=0 / total-frames=178765 / level-idc=51 / high-tier=1 / uhd-bd=0 / ref=6 / no-allow-non-conformance / no-repeat-headers / annexb / no-aud / no-eob / no-eos / no-hrd / info / hash=0 / temporal-layers=0 / no-open-gop / min-keyint=23 / keyint=250 / gop-lookahead=0 / bframes=14 / b-adapt=2 / b-pyramid / bframe-bias=0 / rc-lookahead=75 / lookahead-slices=6 / scenecut=40 / no-hist-scenecut / radl=0 / no-splice / no-intra-refresh / ctu=32 / min-cu-size=8 / no-rect / no-amp / max-tu-size=32 / tu-inter-depth=1 / tu-intra-depth=1 / limit-tu=0 / rdoq-level=0 / dynamic-rd=0.00 / no-ssim-rd / signhide / no-tskip / nr-intra=0 / nr-inter=0 / no-constrained-intra / no-strong-intra-smoothing / max-merge=3 / limit-refs=1 / no-limit-modes / me=3 / subme=7 / merange=48 / temporal-mvp / no-frame-dup / hme / Level / merange / L0,L1,L2=24,36,48 / weightp / weightb / no-analyze-src-pics / deblock=0:0 / sao / no-sao-non-deblock / rd=4 / selective-sao=4 / early-skip / rskip / no-fast-intra / no-tskip-fast / no-cu-lossless / b-intra / no-splitrd-skip / rdpenalty=2 / psy-rd=2.00 / psy-rdoq=0.00 / no-rd-refine / no-lossless / cbqpoffs=0 / crqpoffs=0 / rc=crf / crf=16.0 / qcomp=0.60 / qpstep=4 / stats-write=0 / stats-read=0 / vbv-maxrate=160000 / vbv-bufsize=160000 / vbv-init=0.9 / min-vbv-fullness=50.0 / max-vbv-fullness=80.0 / crf-max=0.0 / crf-min=0.0 / ipratio=1.40 / pbratio=1.30 / aq-mode=1 / aq-strength=1.00 / cutree / zone-count=0 / no-strict-cbr / qg-size=32 / no-rc-grain / qpmax=69 / qpmin=0 / no-const-vbv / sar=0 / overscan=0 / videoformat=5 / range=0 / colorprim=1 / transfer=1 / colormatrix=1 / chromaloc=1 / chromaloc-top=2 / chromaloc-bottom=2 / display-window=0 / cll=0,0 / min-luma=0 / max-luma=1023 / log2-max-poc-lsb=8 / vui-timing-info / vui-hrd-info / slices=1 / no-opt-qp-pps / no-opt-ref-list-length-pps / no-multi-pass-opt-rps / scenecut-bias=0.05 / no-opt-cu-delta-qp / aq-motion / no-hdr10 / no-hdr10-opt / no-dhdr10-opt / no-idr-recovery-sei / analysis-reuse-level=0 / analysis-save-reuse-level=0 / analysis-load-reuse-level=0 / scale-factor=0 / refine-intra=0 / refine-inter=0 / refine-mv=1 / refine-ctu-distortion=0 / no-limit-sao / ctu-info=0 / no-lowpass-dct / refine-analysis-type=0 / copy-pic=1 / max-ausize-factor=1.0 / no-dynamic-refine / no-single-sei / no-hevc-aq / no-svt / no-field / qp-adaptation-range=1.00 / scenecut-aware-qp=0conformance-window-offsets / right=0 / bottom=0 / decoder-max-rate=0 / no-vbv-live-multi-pass / no-mcstf / no-sbrc
Default : Yes
Forced : No
Color range : Limited
Color primaries : BT.709
Transfer characteristics : BT.709
Matrix coefficients : BT.709

Audio
ID : 2
ID in the original source medium : 4352 (0x1100)
Format : DTS XLL
Format/Info : Digital Theater Systems
Commercial name : DTS-HD Master Audio
Codec ID : A_DTS
Duration : 2 h 4 min
Bit rate mode : Variable
Bit rate : 3 729 kb/s
Channel(s) : 6 channels
Channel layout : C L R Ls Rs LFE
Sampling rate : 48.0 kHz
Frame rate : 93.750 FPS (512 SPF)
Bit depth : 24 bits
Compression mode : Lossless
Stream size : 3.24 GiB (56%)
Language : Japanese
Default : Yes
Forced : No
Original source medium : Blu-ray

Text #1
ID : 3
ID in the original source medium : 4608 (0x1200)
Format : PGS
Codec ID : S_HDMV/PGS
Codec ID/Info : Picture based subtitle format used on BDs/HD-DVDs
Duration : 1 h 56 min
Bit rate : 15.3 kb/s
Frame rate : 0.312 FPS
Count of elements : 2188
Stream size : 12.8 MiB (0%)
Title : Chs
Language : Chinese
Default : Yes
Forced : No
Original source medium : Blu-ray

Text #2
ID : 4
ID in the original source medium : 4609 (0x1201)
Format : PGS
Codec ID : S_HDMV/PGS
Codec ID/Info : Picture based subtitle format used on BDs/HD-DVDs
Duration : 1 h 56 min
Bit rate : 15.4 kb/s
Frame rate : 0.312 FPS
Count of elements : 2188
Stream size : 12.9 MiB (0%)
Title : Cht
Language : Chinese
Default : Yes
Forced : No
Original source medium : Blu-ray

Menu
00:00:00.000 : en:第 01 章
00:10:29.337 : en:第 02 章
00:15:36.060 : en:第 03 章
00:23:37.249 : en:第 04 章
00:30:33.748 : en:第 05 章
00:32:07.592 : en:第 06 章
00:37:57.149 : en:第 07 章
00:42:38.055 : en:第 08 章
00:47:42.818 : en:第 09 章
00:52:50.584 : en:第 10 章
00:58:50.151 : en:第 11 章
01:05:54.700 : en:第 12 章
01:12:35.768 : en:第 13 章
01:19:30.307 : en:第 14 章
01:29:28.363 : en:第 15 章
01:36:41.879 : en:第 16 章
01:40:22.099 : en:第 17 章
01:46:24.002 : en:第 18 章
01:55:48.107 : en:第 19 章
02:00:09.202 : en:第 20 章


部分资源为软字幕,移动端推荐播放器:MxPlayer,nPlayer,infuse ,其他播放器请自行尝试。

部分资源为软字幕,电脑端推荐播放器:PotPlayer,完美解码,KMPLAYER,其他播放器请自行尝试。



1 个附件 售价 大小 下载 时间

Midnight.Swan.2020.BluRay.1080p.DTS-HDMA5.1.x265.10bit-DreamHD[1LOU.ME].torrent 0 金币 17.35K 1232 次 2月前

#1楼
发帖时间:2024-02-08 18:58:55   |   回复数:1
jokingcheung
超凡入圣№
谢谢分享
2月前 #2楼
游客组