Asuka601
隐世仙人♂

[更 早] [日本] [动画] [BD-1080P] 吸血鬼猎人D[简繁英字幕].Vampire.Hunter.D.1985.Repack.1080p.BluRay.x264.FLAC.2.0-SONYHD 5.9

-->

完整标题:吸血鬼猎人D[简繁英字幕].Vampire.Hunter.D.1985.Repack.1080p.BluRay.x264.FLAC.2.0-SONYHD 5.93GB



◎标  题 吸血鬼猎人D
◎译  名 Vampire Hunter D / OVA:吸血鬼ハンターD
◎片  名 吸血鬼ハンターD
◎年  代 1985
◎产  地 日本
◎类  别 动画 / 恐怖 / 奇幻
◎语  言 日语
◎上映日期 1985-12-21(日本)
◎IMDb评分 7/10 (17158人评价)
◎IMDb链接 https://www.imdb.com/title/tt0090248/
◎豆瓣评分 8.4/10 (5804人评价)
◎豆瓣链接 https://movie.douban.com/subject/3055044/
◎片  长 82分钟
◎导  演 芦田丰雄 Toyoo Ashida
      卡尔·梅塞克 Carl Macek
◎编  剧 菊地秀行 Hideyuki Kikuchi
      Tom Wyner Tom Wyner
◎演  员 盐泽兼人 Kaneto Shiozawa
      永井一郎 Ichirô Nagai
      户田惠子 Keiko Toda
      加藤精三 Seizô Katô
      榊原良子 Yoshiko Sakakibara
      富泽美智惠 Michie Tomizawa
      清川元梦 Motomu Kiyokawa
      屋良有作 Yûsaku Yara
      迈克尔·麦康诺希 Michael McConnohie
      柯克·桑顿 Kirk Thornton
      芭芭拉·古德森 Barbara Goodson
      田中和实 Kazumi Tanaka
      Joyce Kurtz Joyce Kurtz
      Kerrigan Mahan Kerrigan Mahan
      弥永和子 Kazuko Yanaga
      杰夫·温克里斯 Jeff Winkless
      村松康雄 Yasuo Muramatsu
      大泷进矢 Shinya Ôtaki
      德丸完 Kan Tokumaru
      Tom Wyner Tom Wyner
      曾我部和行 Kazuyuki Sogabe
      史蒂夫·克莱默 Steve Kramer
      Steve Bulen Steve Bulen
      劳拉·科迪 Lara Cody
      马克·拉斯科夫斯基 Mark Laskowski
      杰伊·希克曼 Jay Hickman
      约翰·格雷米林 John Gremillion
      卢卡·西米拉诺 Luca Semeraro

◎简  介
    西暦12090 年、舞台は辺境の町。一帯を支配する「貴族」リィ伯爵に血を吸われた少女ドリスは、吸血鬼ハンターの"D"を雇い入れた。ドリスを吸血鬼の一族へと迎え入れようとする伯爵、それに反発する彼の娘ラミーカ、強盗団の頭目であり不死を目論む麗銀星などの面々と、伯爵を狙う"D"との激闘が幕を開ける。

点击图片可查看大图

软字幕无法在截图上展现,HDR版本/杜比视界版本截图会出现颜色异常,请使用支持的设备播放!

##### MediaInfo ######
General
Unique ID : 226732312420943644123395627568583505949 (0xAA930E1382009BD510CA70B99751781D)
Complete name : Vampire.Hunter.D.1985.Repack.1080p.BluRay.x264.FLAC.2.0-SONYHD.mkv
Duration : 1 h 21 min
Overall bit rate mode : Variable
Overall bit rate : 10.4 Mb/s

Video
ID : 1
Format : AVC
Format/Info : Advanced Video Codec
Format profile : [email protected]
Format settings : CABAC / 4 Ref Frames
Format settings, CABAC : Yes
Format settings, Reference frames : 4 frames
Codec ID : V_MPEG4/ISO/AVC
Duration : 1 h 21 min
Bit rate : 9 692 kb/s
Width : 1 464 pixels
Height : 1 080 pixels
Display aspect ratio : 4:3
Frame rate mode : Constant
Frame rate : 23.976 (24000/1001) FPS
Color space : YUV
Chroma subsampling : 4:2:0
Bit depth : 8 bits
Scan type : Progressive
Bits/(Pixel*Frame) : 0.256
Stream size : 5.55 GiB (94%)
Writing library : x264 core 164 r3085+55M 938b6d0 t_mod_New [(8 & 10)-bit@all X86_64]
Encoding settings : cabac=1 / ref=4 / deblock=1:-3:-3 / analyse=0x3:0x133 / me=umh / subme=11 / psy=1 / fade_compensate=0.00 / psy_rd=0.50:1.10 / mixed_ref=1 / me_range=48 / chroma_me=1 / trellis=2 / 8x8dct=1 / cqm=0 / deadzone=21,11 / fast_pskip=0 / chroma_qp_offset=-5 / threads=34 / lookahead_threads=8 / sliced_threads=0 / nr=0 / decimate=0 / interlaced=0 / bluray_compat=0 / constrained_intra=0 / fgo=0 / bframes=11 / b_pyramid=2 / b_adapt=2 / b_bias=0 / direct=3 / weightb=1 / open_gop=0 / weightp=2 / keyint=240 / keyint_min=1 / scenecut=40 / intra_refresh=0 / rc_lookahead=72 / rc=crf / mbtree=0 / crf=20.2000 / qcomp=0.60 / qpmin=0:0:0 / qpmax=69:69:69 / qpstep=4 / vbv_maxrate=62500 / vbv_bufsize=78125 / crf_max=0.0 / nal_hrd=none / filler=0 / ip_ratio=1.20 / pb_ratio=1.10 / aq=3:0.60 / aq-sensitivity=10.00 / aq-factor=1.00:1.00:1.00 / aq2=0 / aq3=0
Default : Yes
Forced : No

Audio
ID : 2
Format : FLAC
Format/Info : Free Lossless Audio Codec
Codec ID : A_FLAC
Duration : 1 h 20 min
Bit rate mode : Variable
Bit rate : 666 kb/s
Channel(s) : 2 channels
Channel layout : L R
Sampling rate : 48.0 kHz
Frame rate : 11.719 FPS (4096 SPF)
Bit depth : 16 bits
Compression mode : Lossless
Stream size : 383 MiB (6%)
Title : Japanese
Writing library : libFLAC 1.2.1 (UTC 2007-09-17)
Language : Japanese
Default : Yes
Forced : No

Text #1
ID : 3
ID in the original source medium : 4610 (0x1202)
Format : PGS
Muxing mode : zlib
Codec ID : S_HDMV/PGS
Codec ID/Info : Picture based subtitle format used on BDs/HD-DVDs
Duration : 1 h 14 min
Bit rate : 16.4 kb/s
Frame rate : 0.273 FPS
Count of elements : 1228
Stream size : 8.77 MiB (0%)
Title : chs
Language : Chinese
Default : Yes
Forced : No
Original source medium : Blu-ray

Text #2
ID : 4
ID in the original source medium : 4611 (0x1203)
Format : PGS
Muxing mode : zlib
Codec ID : S_HDMV/PGS
Codec ID/Info : Picture based subtitle format used on BDs/HD-DVDs
Duration : 1 h 14 min
Bit rate : 16.5 kb/s
Frame rate : 0.273 FPS
Count of elements : 1228
Stream size : 8.86 MiB (0%)
Title : cht
Language : Chinese
Default : No
Forced : No
Original source medium : Blu-ray

Text #3
ID : 5
ID in the original source medium : 4608 (0x1200)
Format : PGS
Muxing mode : zlib
Codec ID : S_HDMV/PGS
Codec ID/Info : Picture based subtitle format used on BDs/HD-DVDs
Duration : 2 min 50 s
Bit rate : 66.9 kb/s
Frame rate : 0.316 FPS
Count of elements : 54
Stream size : 1.36 MiB (0%)
Title : eng
Language : English
Default : No
Forced : No
Original source medium : Blu-ray

Menu
00:00:00.000 : en:Chapter 01
00:05:22.363 : en:Chapter 02
00:20:54.628 : en:Chapter 03
00:27:31.024 : en:Chapter 04
00:40:29.468 : en:Chapter 05
00:46:45.427 : en:Chapter 06
00:53:57.651 : en:Chapter 07
01:02:07.306 : en:Chapter 08
01:05:14.493 : en:Chapter 09
01:06:39.036 : en:Chapter 10
01:11:48.470 : en:Chapter 11
01:16:39.219 : en:Chapter 12
01:20:27.823 : en:Chapter 13


部分资源为软字幕,移动端推荐播放器:MxPlayer,nPlayer,infuse ,其他播放器请自行尝试。

部分资源为软字幕,电脑端推荐播放器:PotPlayer,完美解码,KMPLAYER,其他播放器请自行尝试。



1 个附件 售价 大小 下载 时间

Vampire.Hunter.D.1985.Repack.1080p.BluRay.x264.FLAC.2.0-SONYHD[1LOU.ME].torrent 0 金币 17.70K 1229 次 2月前

#1楼
发帖时间:2024-02-08 11:23:37   |   回复数:1
jokingcheung
超凡入圣№
谢谢分享
2月前 #2楼
游客组