Asuka601
隐世仙人♂

[2020] [日本] [剧情] [BD-1080P] 午夜天鹅[中文字幕].Midnight.Swan.2020.BluRay.1080p.AAC2.0.x264-DreamHD 3.64GB

-->

完整标题:午夜天鹅[中文字幕].Midnight.Swan.2020.BluRay.1080p.AAC2.0.x264-DreamHD 3.64GB



◎标  题 午夜天鹅
◎译  名 Midnight Swan
◎片  名 ミッドナイトスワン
◎年  代 2020
◎产  地 日本
◎类  别 剧情 / 同性
◎语  言 日语
◎上映日期 2020-09-25(日本)
◎IMDb评分 6.9/10 (659人评价)
◎IMDb链接 https://www.imdb.com/title/tt12774954/
◎豆瓣评分 7.6/10 (2570人评价)
◎豆瓣链接 https://movie.douban.com/subject/34858550/
◎片  长 124分钟
◎导  演 内田英治 Eiji Uchida
◎编  剧 内田英治 Eiji Uchida
◎演  员 草彅刚 Tsuyoshi Kusanagi
      服部树咲 Misaki Hattori
      田中俊介 Shunsuke Tanaka
      吉村界人 Kaito Yoshimura
      佐藤江梨子 Eriko Satô
      平山祐介 Yusuke Hirayama
      根岸季衣 Toshie Negishi
      水川麻美 Asami Mizukawa
      田口智朗 Tomorowo Taguchi
      真飞圣 Sei Matobu
      上田帆乃佳 Honoka Ueda
      堀田真三 Shinzô Hotta
      伊岛空 Kuu Izima
      池田良 Ryô Ikeda
      高木胜也 Katsuya Takagi
      大山真绘子 Maeko Oyama

◎简  介
    故郷の広島を離れた凪沙は、東京の新宿で衣装に身を包み、仲間と共にステージに立つ日々を送っている。そんなある日、凪沙は育児放棄にあっていた親戚の一果を預かることに。彼女と出会ったことで、孤独だった凪沙に今まで感じたことのない感情が芽生える。世界190カ国で配信されたNetflixドラマ『全裸監督』で脚光を浴びた内田英治監督がオリジナル脚本で挑む人間ドラマ。東京で孤独に生きていたトランスジェンダーの主人公・凪沙と、親から愛を注がれずに生きてきた少女・一果の出会いと関わりを通して、切なくも美しい現代の愛の形を描く。主演を『台風家族』などの草なぎ剛が務める。

点击图片可查看大图

软字幕无法在截图上展现,HDR版本/杜比视界版本截图会出现颜色异常,请使用支持的设备播放!

##### MediaInfo ######
General
Complete name : Midnight.Swan.2020.BluRay.1080p.iPad.AAC2.0.x264-DreamHD.mp4
Duration : 2 h 4 min
Overall bit rate : 4 197 kb/s

Video
ID : 1
Format : AVC
Format/Info : Advanced Video Codec
Format profile : [email protected]
Format settings : 5 Ref Frames
Format settings, CABAC : No
Format settings, Reference frames : 5 frames
Codec ID : avc1
Codec ID/Info : Advanced Video Coding
Duration : 2 h 4 min
Bit rate : 3 997 kb/s
Width : 1 920 pixels
Height : 1 080 pixels
Display aspect ratio : 16:9
Frame rate mode : Variable
Frame rate : 23.976 (24000/1001) FPS
Minimum frame rate : 23.974 FPS
Maximum frame rate : 23.981 FPS
Color space : YUV
Chroma subsampling : 4:2:0
Bit depth : 8 bits
Scan type : Progressive
Bits/(Pixel*Frame) : 0.080
Stream size : 3.47 GiB (95%)
Writing library : x264 core 164 r3100 ed0f7a6
Encoding settings : cabac=0 / ref=5 / deblock=0:0:0 / analyse=0x1:0x111 / me=hex / subme=8 / psy=1 / psy_rd=1.00:0.00 / mixed_ref=1 / me_range=16 / chroma_me=1 / trellis=2 / 8x8dct=0 / cqm=0 / deadzone=21,11 / fast_pskip=1 / chroma_qp_offset=-2 / threads=24 / lookahead_threads=4 / sliced_threads=0 / nr=0 / decimate=1 / interlaced=0 / bluray_compat=0 / constrained_intra=0 / bframes=3 / b_pyramid=2 / b_adapt=1 / b_bias=0 / direct=3 / weightb=0 / open_gop=0 / weightp=0 / keyint=240 / keyint_min=24 / scenecut=40 / intra_refresh=0 / rc_lookahead=50 / rc=2pass / mbtree=1 / bitrate=4000 / ratetol=1.0 / qcomp=0.60 / qpmin=0 / qpmax=69 / qpstep=4 / cplxblur=20.0 / qblur=0.5 / vbv_maxrate=800000 / vbv_bufsize=800000 / nal_hrd=none / filler=0 / ip_ratio=1.40 / aq=1:1.00
Encoded date : UTC 2024-02-06 22:11:54
Tagged date : UTC 2024-02-06 22:11:54
Color range : Limited
Color primaries : BT.709
Transfer characteristics : BT.709
Matrix coefficients : BT.709
Menus : 3
mdhd_Duration : 7455990
Codec configuration box : avcC

Audio
ID : 2
Format : AAC LC
Format/Info : Advanced Audio Codec Low Complexity
Codec ID : mp4a-40-2
Duration : 2 h 4 min
Source duration : 2 h 4 min
Bit rate mode : Constant
Bit rate : 192 kb/s
Channel(s) : 2 channels
Channel layout : L R
Sampling rate : 48.0 kHz
Frame rate : 46.875 FPS (1024 SPF)
Compression mode : Lossy
Stream size : 172 MiB (5%)
Source stream size : 172 MiB (5%)
Title : Stereo
Language : Japanese
Default : Yes
Alternate group : 1
Encoded date : UTC 2024-02-06 22:11:54
Tagged date : UTC 2024-02-06 22:11:54
Menus : 3

Menu
ID : 3
Format : Timed Text
Codec ID : text
Duration : 2 h 4 min
Language : English
Encoded date : UTC 2024-02-06 22:11:54
Tagged date : UTC 2024-02-06 22:11:54
Bit rate mode : CBR
Menu For : 1,2
00:00:00.000 : 第 01 章
00:10:29.462 : 第 02 章
00:15:36.185 : 第 03 章
00:23:37.374 : 第 04 章
00:30:33.749 : 第 05 章
00:32:07.676 : 第 06 章
00:37:57.150 : 第 07 章
00:42:38.056 : 第 08 章
00:47:42.860 : 第 09 章
00:52:50.668 : 第 10 章
00:58:50.152 : 第 11 章
01:05:54.701 : 第 12 章
01:12:35.852 : 第 13 章
01:19:30.391 : 第 14 章
01:29:28.363 : 第 15 章
01:36:42.005 : 第 16 章
01:40:22.183 : 第 17 章
01:46:24.003 : 第 18 章
01:55:48.108 : 第 19 章
02:00:09.202 : 第 20 章
Bit rate mode : Constant


部分资源为软字幕,移动端推荐播放器:MxPlayer,nPlayer,infuse ,其他播放器请自行尝试。

部分资源为软字幕,电脑端推荐播放器:PotPlayer,完美解码,KMPLAYER,其他播放器请自行尝试。



1 个附件 售价 大小 下载 时间

Midnight.Swan.2020.BluRay.1080p.AAC2.0.x264-DreamHD[1LOU.ME].torrent 0 金币 12.03K 1092 次 2月前

#1楼
发帖时间:2024-02-08 11:21:19   |   回复数:1
jokingcheung
超凡入圣№
谢谢分享
2月前 #2楼
游客组