Asuka601
隐世仙人♂

[更 早] [日本] [剧情] [WEB-4K] 乱[HDR/杜比视界双版本][简繁英字幕].Ran.1985.2160p.UHD.BluRay.x265.10bit.DV.DTS-HD.MA.2.0-SONY

-->

完整标题:乱[HDR/杜比视界双版本][简繁英字幕].Ran.1985.2160p.UHD.BluRay.x265.10bit.DV.DTS-HD.MA.2.0-SONYHD 22.49GB



◎标  题 乱
◎译  名 乱日本战国时代 / Revolt / Ran
◎年  代 1985
◎产  地 日本 / 法国
◎类  别 剧情 / 动作
◎语  言 日语
◎上映日期 1985-06-01(日本)
◎IMDb评分 8.2/10 (133535人评价)
◎IMDb链接 https://www.imdb.com/title/tt0089881/
◎豆瓣评分 8.9/10 (91574人评价)
◎豆瓣链接 https://movie.douban.com/subject/1296196/
◎片  长 162分钟
◎导  演 黑泽明 Akira Kurosawa
◎编  剧 黑泽明 Akira Kurosawa
      小国英雄 Hideo Oguni
      井手雅人 Masato Ide
      威廉·莎士比亚 William Shakespeare
◎演  员 仲代达矢 Tatsuya Nakadai
      寺尾聪 Akira Terao
      根津甚八 Jinpachi Nezu
      隆大介 Daisuke Ryû
      原田美枝子 Mieko Harada
      宫崎美子 Yoshiko Miyazaki
      井川比佐志 Hisashi Igawa
      池畑慎之介 Pîtâ
      油井昌由树 Masayuki Yui
      加藤和夫 Kazuo Katô
      松井范雄 Norio Matsui
      伊藤敏八 Toshiya Ito
      儿玉谦次 Kenji Kodama
      野村万斋 Mansai Nomura
      加藤武 Takeshi Katô
      田崎润 Jun Tazaki
      植木等 Hitoshi Ueki
      头师孝雄 Takao Zushi
      头师佳孝 Yoshitaka Zushi
      天田益男 Masuo Amada
      木村荣 Sakae Kimura
      日比游一 Yuichi Hibi
      加藤精三 Seizô Katô
      南条玲子 Reiko Nanjo
      音羽久米子 Kumeko Otowa
      寺岛进 Susumu Terajima
      东乡晴子 Haruko Togo
      本多猪四郎 Ishirô Honda
      渡边哲 Tetsu Watanabe
      宫坂广 Hiroshi Miyasaka

◎简  介
    一文字秀虎(仲代达矢饰)征战多年,手段残忍。在七十岁时,秀虎准备将家业一分为三,由三个儿子分掌大权。他把太郎孝虎(寺尾聪饰)、次郎正虎(根津甚八饰)、三郎直虎(隆大介饰)叫到跟前,以“支箭会断,砚支箭折不断”喻语告诫三兄弟,嘱咐他们要休戚与共。三郎当场把三支箭横在膝上折断,以抗议父亲枉经乱世,而不知人情。秀虎大怒,将三郎驱逐出境。三郎遂到邻国入赘为婿。   而之后一文字家果然被三郎言中,背信弃义的告诫果然成真,父子及兄弟间的纷乱开始,迎接他们的将是什么命运?

##### MediaInfo ######
General
Unique ID : 14153273736361132842905294505752342884 (0xAA5D2454DD9E16DF81A42551AE33164)
Complete name : Ran.1985.2160p.UHD.BluRay.x265.10bit.DV.DTS-HD.MA.2.0-SONYHD.mkv
Duration : 2 h 40 min
Overall bit rate mode : Variable
Overall bit rate : 20.1 Mb/s

Video
ID : 1
Format : HEVC
Format/Info : High Efficiency Video Coding
Format profile : Main [email protected]@High
HDR format : Dolby Vision, Version 1.0, dvhe.08.06, BL+RPU, HDR10 compatible / SMPTE ST 2086, HDR10 compatible
Codec ID : V_MPEGH/ISO/HEVC
Duration : 2 h 40 min
Bit rate : 15.9 Mb/s
Width : 3 840 pixels
Height : 2 076 pixels
Display aspect ratio : 1.85:1
Frame rate mode : Constant
Frame rate : 24.000 FPS
Color space : YUV
Chroma subsampling : 4:2:0
Bit depth : 10 bits
Bits/(Pixel*Frame) : 0.083
Stream size : 17.9 GiB (79%)
Writing library : x265 3.5g2b25c9ba0+45:[Windows][MSVC 1926][64 bit] Yuuki 10bit+8bit+12bit
Encoding settings : rc=crf / crf=22.6000 / qcomp=0.60 / qpstep=4 / stats-write=0 / stats-read=0 / vbv-maxrate=160000 / vbv-bufsize=160000 / vbv-init=0.9 / min-vbv-fullness=50.0 / max-vbv-fullness=80.0 / crf-max=0.0 / crf-min=0.0 / no-lossless / no-cu-lossless / aq-mode=3 / aq-strength=0.70 / cbqpoffs=0 / crqpoffs=0 / ipratio=1.40 / pbratio=1.30 / psy-rd=2.00 / psy-rdoq=2.00 / deblock=-3:-3 / ref=5 / limit-refs=1 / no-limit-modes / bframes=11 / b-adapt=2 / bframe-bias=0 / b-pyramid / b-intra / weightp / weightb / min-keyint=1 / max-keyint=240 / rc-lookahead=72 / gop-lookahead=0 / scenecut=40 / hist-scenecut=0 / radl=0 / max-cu-size=64 / min-cu-size=8 / me=3 / subme=6 / merange=48 / rdoq-level=2 / rd=4 / rdpenalty=0 / dynamic-rd=0.00 / no-rd-refine / ----- / no-cutree / no-sao / no-rect / no-amp / no-open-gop / wpp / no-pmode / no-pme / no-psnr / no-ssim / nr-intra=0 / nr-inter=0 / no-constrained-intra / no-strong-intra-smoothing / max-tu-size=32 / tu-inter-depth=4 / tu-intra-depth=4 / limit-tu=0 / qg-size=32 / qpmax=69 / qpmin=0 / ----- / cpuid=1111039 / frame-threads=6 / numa-pools=+ / log-level=2 / input-csp=1 / input-res=3840x2076 / interlace=0 / level-idc=51 / high-tier=1 / uhd-bd=0 / no-allow-non-conformance / repeat-headers / aud / hrd / info / hash=0 / no-temporal-layers / lookahead-slices=0 / no-splice / no-intra-refresh / no-ssim-rd / signhide / no-tskip / max-merge=5 / temporal-mvp / no-frame-dup / no-hme / analyze-src-pics / no-sao-non-deblock / selective-sao=0 / early-skip / rskip / no-fast-intra / no-tskip-fast / no-splitrd-skip / zone-count=0 / no-strict-cbr / no-rc-grain / no-const-vbv / sar=0 / overscan=0 / videoformat=5 / range=0 / colorprim=9 / transfer=16 / colormatrix=9 / chromaloc=0 / display-window=0 / master-display=G(13250,34500)B(7500,3000)R(34000,16000)WP(15635,16450)L(10000000,1) / cll=962,201 / min-luma=0 / max-luma=1023 / log2-max-poc-lsb=8 / vui-timing-info / vui-hrd-info / slices=1 / no-opt-qp-pps / no-opt-ref-list-length-pps / no-multi-pass-opt-rps / scenecut-bias=0.05 / hist-threshold=0.03 / no-opt-cu-delta-qp / no-aq-motion / hdr10 / hdr10-opt / no-dhdr10-opt / no-idr-recovery-sei / analysis-reuse-level=0 / analysis-save-reuse-level=0 / analysis-load-reuse-level=0 / scale-factor=0 / refine-intra=0 / refine-inter=0 / refine-mv=1 / refine-ctu-distortion=0 / no-limit-sao / ctu-info=0 / no-lowpass-dct / refine-analysis-type=0 / copy-pic=1 / max-ausize-factor=1.0 / no-dynamic-refine / no-single-sei / no-hevc-aq / no-svt / no-field / qp-adaptation-range=1.00 / scenecut-aware-qp=0conformance-window-offsets / right=0 / bottom=0 / decoder-max-rate=0 / no-vbv-live-multi-pass
Default : Yes
Forced : No
Color range : Limited
Color primaries : BT.2020
Transfer characteristics : PQ
Matrix coefficients : BT.2020 non-constant
Mastering display color primaries : Display P3
Mastering display luminance : min: 0.0001 cd/m2, max: 1000 cd/m2
Maximum Content Light Level : 962 cd/m2
Maximum Frame-Average Light Level : 201 cd/m2

Audio
ID : 2
ID in the original source medium : 4353 (0x1101)
Format : DTS XLL
Format/Info : Digital Theater Systems
Commercial name : DTS-HD Master Audio
Codec ID : A_DTS
Duration : 2 h 40 min
Bit rate mode : Variable
Bit rate : 4 063 kb/s
Channel(s) : 6 channels
Channel layout : C L R Ls Rs LFE
Sampling rate : 48.0 kHz
Frame rate : 93.750 FPS (512 SPF)
Bit depth : 24 bits
Compression mode : Lossless
Stream size : 4.56 GiB (20%)
Language : Japanese
Default : Yes
Forced : No
Original source medium : Blu-ray

Text #1
ID : 3
ID in the original source medium : 4773 (0x12A5)
Format : PGS
Muxing mode : zlib
Codec ID : S_HDMV/PGS
Codec ID/Info : Picture based subtitle format used on BDs/HD-DVDs
Duration : 2 h 35 min
Bit rate : 24.4 kb/s
Frame rate : 0.239 FPS
Count of elements : 2232
Stream size : 27.2 MiB (0%)
Title : chs&jpn
Language : Chinese
Default : Yes
Forced : No
Original source medium : Blu-ray

Text #2
ID : 4
ID in the original source medium : 4774 (0x12A6)
Format : PGS
Muxing mode : zlib
Codec ID : S_HDMV/PGS
Codec ID/Info : Picture based subtitle format used on BDs/HD-DVDs
Duration : 2 h 35 min
Bit rate : 24.6 kb/s
Frame rate : 0.239 FPS
Count of elements : 2232
Stream size : 27.3 MiB (0%)
Title : cht&jpn
Language : Chinese
Default : No
Forced : No
Original source medium : Blu-ray

Text #3
ID : 5
ID in the original source medium : 4775 (0x12A7)
Format : PGS
Muxing mode : zlib
Codec ID : S_HDMV/PGS
Codec ID/Info : Picture based subtitle format used on BDs/HD-DVDs
Duration : 2 h 35 min
Bit rate : 13.9 kb/s
Frame rate : 0.239 FPS
Count of elements : 2232
Stream size : 15.5 MiB (0%)
Title : chs
Language : Chinese
Default : No
Forced : No
Original source medium : Blu-ray

Text #4
ID : 6
ID in the original source medium : 4776 (0x12A8)
Format : PGS
Muxing mode : zlib
Codec ID : S_HDMV/PGS
Codec ID/Info : Picture based subtitle format used on BDs/HD-DVDs
Duration : 2 h 35 min
Bit rate : 14.1 kb/s
Frame rate : 0.239 FPS
Count of elements : 2232
Stream size : 15.6 MiB (0%)
Title : cht
Language : Chinese
Default : No
Forced : No
Original source medium : Blu-ray

Text #5
ID : 7
ID in the original source medium : 4769 (0x12A1)
Format : PGS
Muxing mode : zlib
Codec ID : S_HDMV/PGS
Codec ID/Info : Picture based subtitle format used on BDs/HD-DVDs
Duration : 2 h 35 min
Bit rate : 16.1 kb/s
Frame rate : 0.266 FPS
Count of elements : 2486
Stream size : 17.9 MiB (0%)
Language : English
Default : No
Forced : No
Original source medium : Blu-ray

Text #6
ID : 8
ID in the original source medium : 4777 (0x12A9)
Format : PGS
Muxing mode : zlib
Codec ID : S_HDMV/PGS
Codec ID/Info : Picture based subtitle format used on BDs/HD-DVDs
Duration : 2 h 35 min
Bit rate : 12.2 kb/s
Frame rate : 0.239 FPS
Count of elements : 2232
Stream size : 13.6 MiB (0%)
Language : Japanese
Default : No
Forced : No
Original source medium : Blu-ray

Menu
00:00:00.000 : en:Chapter 01
00:12:09.831 : en:Chapter 02
00:26:00.958 : en:Chapter 03
00:38:47.958 : en:Chapter 04
00:51:34.625 : en:Chapter 05
01:04:11.123 : en:Chapter 06
01:17:57.750 : en:Chapter 07
01:28:56.000 : en:Chapter 08
01:43:53.998 : en:Chapter 09
01:59:30.666 : en:Chapter 10
02:14:42.707 : en:Chapter 11
02:33:02.123 : en:Chapter 12


部分资源为软字幕,移动端推荐播放器:MxPlayer,nPlayer,infuse ,其他播放器请自行尝试。

部分资源为软字幕,电脑端推荐播放器:PotPlayer,完美解码,KMPLAYER,其他播放器请自行尝试。



1 个附件 售价 大小 下载 时间

Ran.1985.2160p.UHD.BluRay.x265.10bit.DV.DTS-HD.MA.2.0-SONYHD[1LOU.ME].torrent 0 金币 59.09K 2804 次 2月前

#1楼
发帖时间:2024-02-07 13:12:39   |   回复数:1
jokingcheung
超凡入圣№
谢谢分享
2月前 #2楼
游客组