Asuka601
隐世仙人♂

[2015] [日本] [剧情] [BD-1080P] 澄沙之味[简繁英字幕].Sweet.Bean.2015.1080p.BluRay.x265.10bit.DTS-SONYHD 6.44GB

-->

完整标题:澄沙之味[简繁英字幕].Sweet.Bean.2015.1080p.BluRay.x265.10bit.DTS-SONYHD 6.44GB



◎标  题 澄沙之味
◎译  名 甜味人间(港) / 恋恋铜锣烧(台) / 红豆沙之味 / Sweet Bean / Sweet Red Bean Paste
◎片  名 あん
◎年  代 2015
◎产  地 日本 / 法国 / 德国
◎类  别 剧情
◎语  言 日语
◎上映日期 2015-05-30(日本)
◎IMDb评分 7.4/10 (12450人评价)
◎IMDb链接 https://www.imdb.com/title/tt4298958/
◎豆瓣评分 8.3/10 (50466人评价)
◎豆瓣链接 https://movie.douban.com/subject/25905124/
◎片  长 113分钟
◎导  演 河濑直美 Naomi Kawase
◎编  剧 河濑直美 Naomi Kawase
      明川哲也 Durian Sukegawa
◎演  员 树木希林 Kirin Kiki
      永濑正敏 Masatoshi Nagase
      市原悦子 Etsuko Ichihara
      内田伽罗 Kyara Uchida
      水野美纪 Miki Mizuno
      浅田美代子 Miyoko Asada
      仲野太贺 Taiga Nagano
      高桥纱妃 Saki Takahashi
      兼松若人 Wakato Kanematsu

◎简  介
    故事发生在一间名为“铜锣之春”的铜锣烧专卖店里,千太郎(永濑正敏 饰)是这里的店长,曾经,他有过一段十分灰暗的过往,如今,他将不堪回首的回忆深深的埋葬在心底,安安心心,只做一介卖铜锣烧的小贩。   某日,一位名叫德江(树木希林 饰)的老人来到了店铺,声称自己是来应聘做店员的,然而,小小的铜锣之春里并不需要店员,千太郎从一开始就打算拒绝德江。然而,德江拿出了自己制作的红豆馅,品尝过后,千太郎被馅料的美味所震惊了,就这样,德江成为了店里的一员。随着时间的推移,一些有关德江的不利传闻在小镇上蔓延开来,甚至影响到了店铺的经营。

##### MediaInfo ######
General
Unique ID : 84236259421069655041186132684718887776 (0x3F5F503DBFD825489A931967E1265360)
Complete name : Sweet.Bean.2015.1080p.BluRay.x265.10bit.DTS-SONYHD.mkv
Duration : 1 h 53 min
Overall bit rate : 8 140 kb/s

Video
ID : 1
Format : HEVC
Format/Info : High Efficiency Video Coding
Format profile : Main 10@L4@Main
Codec ID : V_MPEGH/ISO/HEVC
Duration : 1 h 53 min
Bit rate : 6 609 kb/s
Width : 1 920 pixels
Height : 802 pixels
Display aspect ratio : 2.40:1
Frame rate mode : Constant
Frame rate : 24.000 FPS
Color space : YUV
Chroma subsampling : 4:2:0
Bit depth : 10 bits
Bits/(Pixel*Frame) : 0.179
Stream size : 5.23 GiB (81%)
Writing library : x265 3.5g2b25c9ba0+45:[Windows][GCC 10.2.0][64 bit] Yuuki 10bit+8bit+12bit
Encoding settings : rc=crf / crf=16.8000 / qcomp=0.60 / qpstep=4 / stats-write=0 / stats-read=0 / no-lossless / no-cu-lossless / aq-mode=3 / aq-strength=0.90 / cbqpoffs=0 / crqpoffs=0 / ipratio=1.40 / pbratio=1.30 / psy-rd=2.00 / psy-rdoq=0.00 / deblock=0:0 / ref=6 / limit-refs=1 / no-limit-modes / bframes=8 / b-adapt=2 / bframe-bias=0 / b-pyramid / b-intra / weightp / weightb / min-keyint=24 / max-keyint=240 / rc-lookahead=24 / gop-lookahead=0 / scenecut=40 / hist-scenecut=0 / radl=0 / max-cu-size=64 / min-cu-size=8 / me=3 / subme=7 / merange=48 / rdoq-level=0 / rd=4 / rdpenalty=0 / dynamic-rd=0.00 / no-rd-refine / ----- / cutree / sao / no-rect / no-amp / no-open-gop / wpp / no-pmode / no-pme / no-psnr / no-ssim / nr-intra=0 / nr-inter=0 / no-constrained-intra / no-strong-intra-smoothing / max-tu-size=32 / tu-inter-depth=1 / tu-intra-depth=1 / limit-tu=0 / qg-size=32 / qpmax=69 / qpmin=0 / ----- / cpuid=1111039 / frame-threads=4 / numa-pools=+ / log-level=2 / input-csp=1 / input-res=1920x802 / interlace=0 / level-idc=0 / high-tier=1 / uhd-bd=0 / no-allow-non-conformance / no-repeat-headers / aud / no-hrd / info / hash=0 / no-temporal-layers / lookahead-slices=0 / no-splice / no-intra-refresh / no-ssim-rd / signhide / no-tskip / max-merge=3 / temporal-mvp / no-frame-dup / no-hme / no-analyze-src-pics / no-sao-non-deblock / selective-sao=4 / early-skip / rskip / no-fast-intra / no-tskip-fast / no-splitrd-skip / zone-count=0 / no-strict-cbr / no-rc-grain / no-const-vbv / sar=0 / overscan=0 / videoformat=5 / range=0 / colorprim=2 / transfer=2 / colormatrix=2 / chromaloc=0 / display-window=0 / cll=0,0 / min-luma=0 / max-luma=1023 / log2-max-poc-lsb=8 / vui-timing-info / vui-hrd-info / slices=1 / no-opt-qp-pps / no-opt-ref-list-length-pps / no-multi-pass-opt-rps / scenecut-bias=0.05 / hist-threshold=0.03 / no-opt-cu-delta-qp / no-aq-motion / no-hdr10 / no-hdr10-opt / no-dhdr10-opt / no-idr-recovery-sei / analysis-reuse-level=0 / analysis-save-reuse-level=0 / analysis-load-reuse-level=0 / scale-factor=0 / refine-intra=0 / refine-inter=0 / refine-mv=1 / refine-ctu-distortion=0 / no-limit-sao / ctu-info=0 / no-lowpass-dct / refine-analysis-type=0 / copy-pic=1 / max-ausize-factor=1.0 / no-dynamic-refine / no-single-sei / no-hevc-aq / no-svt / no-field / qp-adaptation-range=1.00 / scenecut-aware-qp=0conformance-window-offsets / right=0 / bottom=0 / decoder-max-rate=0 / no-vbv-live-multi-pass
Default : Yes
Forced : No

Audio
ID : 2
ID in the original source medium : 4352 (0x1100)
Format : DTS
Format/Info : Digital Theater Systems
Codec ID : A_DTS
Duration : 1 h 53 min
Bit rate mode : Constant
Bit rate : 1 509 kb/s
Channel(s) : 6 channels
Channel layout : C L R Ls Rs LFE
Sampling rate : 48.0 kHz
Frame rate : 93.750 FPS (512 SPF)
Bit depth : 24 bits
Compression mode : Lossy
Stream size : 1.19 GiB (19%)
Language : Japanese
Default : Yes
Forced : No
Original source medium : Blu-ray

Text #1
ID : 3
ID in the original source medium : 4609 (0x1201)
Format : PGS
Muxing mode : zlib
Codec ID : S_HDMV/PGS
Codec ID/Info : Picture based subtitle format used on BDs/HD-DVDs
Duration : 1 h 52 min
Bit rate : 15.2 kb/s
Frame rate : 0.294 FPS
Count of elements : 1990
Stream size : 12.2 MiB (0%)
Title : chs
Language : Chinese
Default : Yes
Forced : No
Original source medium : Blu-ray

Text #2
ID : 4
ID in the original source medium : 4610 (0x1202)
Format : PGS
Muxing mode : zlib
Codec ID : S_HDMV/PGS
Codec ID/Info : Picture based subtitle format used on BDs/HD-DVDs
Duration : 1 h 52 min
Bit rate : 15.3 kb/s
Frame rate : 0.294 FPS
Count of elements : 1990
Stream size : 12.3 MiB (0%)
Title : cht
Language : Chinese
Default : No
Forced : No
Original source medium : Blu-ray

Text #3
ID : 5
ID in the original source medium : 4608 (0x1200)
Format : PGS
Muxing mode : zlib
Codec ID : S_HDMV/PGS
Codec ID/Info : Picture based subtitle format used on BDs/HD-DVDs
Duration : 1 h 49 min
Bit rate : 16.7 kb/s
Frame rate : 0.285 FPS
Count of elements : 1882
Stream size : 13.2 MiB (0%)
Title : eng
Language : English
Default : No
Forced : No
Original source medium : Blu-ray

Menu
00:00:00.000 : en:Chapter 01
00:10:53.833 : en:Chapter 02
00:24:10.458 : en:Chapter 03
00:40:13.666 : en:Chapter 04
00:55:51.458 : en:Chapter 05
01:11:05.750 : en:Chapter 06
01:29:38.666 : en:Chapter 07
01:43:53.833 : en:Chapter 08


部分资源为软字幕,移动端推荐播放器:MxPlayer,nPlayer,infuse ,其他播放器请自行尝试。

部分资源为软字幕,电脑端推荐播放器:PotPlayer,完美解码,KMPLAYER,其他播放器请自行尝试。



1 个附件 售价 大小 下载 时间

Sweet.Bean.2015.1080p.BluRay.x265.10bit.DTS-SONYHD[1LOU.ME].torrent 0 金币 18.92K 1561 次 2月前

#1楼
发帖时间:2024-02-05 18:13:09   |   回复数:1
jokingcheung
超凡入圣№
谢谢分享
2月前 #2楼
游客组