Asuka601
隐世仙人♂

[2015] [日本] [剧情] [BD-1080P] 澄沙之味[简繁英字幕].Sweet.Bean.2015.1080p.BluRay.x264.DTS-SONYHD 11.04GB

-->

完整标题:澄沙之味[简繁英字幕].Sweet.Bean.2015.1080p.BluRay.x264.DTS-SONYHD 11.04GB



◎标  题 澄沙之味
◎译  名 甜味人间(港) / 恋恋铜锣烧(台) / 红豆沙之味 / Sweet Bean / Sweet Red Bean Paste
◎片  名 あん
◎年  代 2015
◎产  地 日本 / 法国 / 德国
◎类  别 剧情
◎语  言 日语
◎上映日期 2015-05-30(日本)
◎IMDb评分 7.4/10 (12450人评价)
◎IMDb链接 https://www.imdb.com/title/tt4298958/
◎豆瓣评分 8.3/10 (50466人评价)
◎豆瓣链接 https://movie.douban.com/subject/25905124/
◎片  长 113分钟
◎导  演 河濑直美 Naomi Kawase
◎编  剧 河濑直美 Naomi Kawase
      明川哲也 Durian Sukegawa
◎演  员 树木希林 Kirin Kiki
      永濑正敏 Masatoshi Nagase
      市原悦子 Etsuko Ichihara
      内田伽罗 Kyara Uchida
      水野美纪 Miki Mizuno
      浅田美代子 Miyoko Asada
      仲野太贺 Taiga Nagano
      高桥纱妃 Saki Takahashi
      兼松若人 Wakato Kanematsu

◎简  介
    故事发生在一间名为“铜锣之春”的铜锣烧专卖店里,千太郎(永濑正敏 饰)是这里的店长,曾经,他有过一段十分灰暗的过往,如今,他将不堪回首的回忆深深的埋葬在心底,安安心心,只做一介卖铜锣烧的小贩。   某日,一位名叫德江(树木希林 饰)的老人来到了店铺,声称自己是来应聘做店员的,然而,小小的铜锣之春里并不需要店员,千太郎从一开始就打算拒绝德江。然而,德江拿出了自己制作的红豆馅,品尝过后,千太郎被馅料的美味所震惊了,就这样,德江成为了店里的一员。随着时间的推移,一些有关德江的不利传闻在小镇上蔓延开来,甚至影响到了店铺的经营。

##### MediaInfo ######
General
Unique ID : 268701161139872201452982726271656362536 (0xCA25F6135F2D4898B48977D855B58228)
Complete name : Sweet.Bean.2015.1080p.BluRay.x264.DTS-SONYHD.mkv
Duration : 1 h 53 min
Overall bit rate : 14.0 Mb/s

Video
ID : 1
Format : AVC
Format/Info : Advanced Video Codec
Format profile : [email protected]
Format settings : CABAC / 4 Ref Frames
Format settings, CABAC : Yes
Format settings, Reference frames : 4 frames
Codec ID : V_MPEG4/ISO/AVC
Duration : 1 h 53 min
Bit rate : 12.4 Mb/s
Width : 1 920 pixels
Height : 802 pixels
Display aspect ratio : 2.40:1
Frame rate mode : Constant
Frame rate : 24.000 FPS
Color space : YUV
Chroma subsampling : 4:2:0
Bit depth : 8 bits
Scan type : Progressive
Bits/(Pixel*Frame) : 0.336
Stream size : 9.82 GiB (89%)
Writing library : x264 core 164 r3099+55M 141af3f t_mod_New [(8 & 10)-bit@all X86_64]
Encoding settings : cabac=1 / ref=4 / deblock=1:-3:-3 / analyse=0x3:0x133 / me=umh / subme=11 / psy=1 / fade_compensate=0.00 / psy_rd=1.00:0.00 / mixed_ref=1 / me_range=48 / chroma_me=1 / trellis=2 / 8x8dct=1 / cqm=0 / deadzone=21,11 / fast_pskip=0 / chroma_qp_offset=-3 / threads=24 / lookahead_threads=6 / sliced_threads=0 / nr=0 / decimate=0 / interlaced=0 / bluray_compat=0 / constrained_intra=0 / fgo=0 / bframes=11 / b_pyramid=2 / b_adapt=2 / b_bias=0 / direct=3 / weightb=1 / open_gop=0 / weightp=2 / keyint=240 / keyint_min=1 / scenecut=40 / intra_refresh=0 / rc_lookahead=72 / rc=crf / mbtree=0 / crf=18.2000 / qcomp=0.60 / qpmin=0:0:0 / qpmax=69:69:69 / qpstep=4 / vbv_maxrate=62500 / vbv_bufsize=78125 / crf_max=0.0 / nal_hrd=none / filler=0 / ip_ratio=1.40 / pb_ratio=1.30 / aq=3:0.80 / aq-sensitivity=10.00 / aq-factor=1.00:1.00:1.00 / aq2=0 / aq3=0
Default : Yes
Forced : No

Audio
ID : 2
ID in the original source medium : 4352 (0x1100)
Format : DTS
Format/Info : Digital Theater Systems
Codec ID : A_DTS
Duration : 1 h 53 min
Bit rate mode : Constant
Bit rate : 1 509 kb/s
Channel(s) : 6 channels
Channel layout : C L R Ls Rs LFE
Sampling rate : 48.0 kHz
Frame rate : 93.750 FPS (512 SPF)
Bit depth : 24 bits
Compression mode : Lossy
Stream size : 1.19 GiB (11%)
Language : Japanese
Default : Yes
Forced : No
Original source medium : Blu-ray

Text #1
ID : 3
ID in the original source medium : 4609 (0x1201)
Format : PGS
Muxing mode : zlib
Codec ID : S_HDMV/PGS
Codec ID/Info : Picture based subtitle format used on BDs/HD-DVDs
Duration : 1 h 52 min
Bit rate : 15.2 kb/s
Frame rate : 0.294 FPS
Count of elements : 1990
Stream size : 12.2 MiB (0%)
Title : chs
Language : Chinese
Default : Yes
Forced : No
Original source medium : Blu-ray

Text #2
ID : 4
ID in the original source medium : 4610 (0x1202)
Format : PGS
Muxing mode : zlib
Codec ID : S_HDMV/PGS
Codec ID/Info : Picture based subtitle format used on BDs/HD-DVDs
Duration : 1 h 52 min
Bit rate : 15.3 kb/s
Frame rate : 0.294 FPS
Count of elements : 1990
Stream size : 12.3 MiB (0%)
Title : cht
Language : Chinese
Default : No
Forced : No
Original source medium : Blu-ray

Text #3
ID : 5
ID in the original source medium : 4608 (0x1200)
Format : PGS
Muxing mode : zlib
Codec ID : S_HDMV/PGS
Codec ID/Info : Picture based subtitle format used on BDs/HD-DVDs
Duration : 1 h 49 min
Bit rate : 16.7 kb/s
Frame rate : 0.285 FPS
Count of elements : 1882
Stream size : 13.2 MiB (0%)
Title : eng
Language : English
Default : No
Forced : No
Original source medium : Blu-ray

Menu
00:00:00.000 : en:Chapter 01
00:10:53.833 : en:Chapter 02
00:24:10.458 : en:Chapter 03
00:40:13.666 : en:Chapter 04
00:55:51.458 : en:Chapter 05
01:11:05.750 : en:Chapter 06
01:29:38.666 : en:Chapter 07
01:43:53.833 : en:Chapter 08


部分资源为软字幕,移动端推荐播放器:MxPlayer,nPlayer,infuse ,其他播放器请自行尝试。

部分资源为软字幕,电脑端推荐播放器:PotPlayer,完美解码,KMPLAYER,其他播放器请自行尝试。



1 个附件 售价 大小 下载 时间

Sweet.Bean.2015.1080p.BluRay.x264.DTS-SONYHD[1LOU.ME].torrent 0 金币 30.41K 1288 次 2月前

#1楼
发帖时间:2024-02-05 18:12:24   |   回复数:1
jokingcheung
超凡入圣№
谢谢分享
2月前 #2楼
游客组