Asuka601
隐世仙人♂

[更 早] [日本] [剧情] [BD-1080P] 下一站,天国[简繁英字幕].After.Life.1998.BluRay.1080p.LPCM2.0.x264-DreamHD 8.86GB

-->

完整标题:下一站,天国[简繁英字幕].After.Life.1998.BluRay.1080p.LPCM2.0.x264-DreamHD 8.86GB



◎标  题 下一站,天国
◎译  名 After Life / Wonderful Life
◎片  名 ワンダフルライフ
◎年  代 1998
◎产  地 日本
◎类  别 剧情
◎语  言 日语
◎上映日期 1998-09-11(多伦多电影节) / 1999-04-17(日本)
◎IMDb评分 7.6/10 (13373人评价)
◎IMDb链接 https://www.imdb.com/title/tt0165078/
◎豆瓣评分 8.1/10 (16901人评价)
◎豆瓣链接 https://movie.douban.com/subject/1294413/
◎片  长 118分钟(日本)
◎导  演 是枝裕和 Hirokazu Koreeda
◎编  剧 是枝裕和 Hirokazu Koreeda
◎演  员 井浦新 ARATA
      小田绘梨花 Erika Oda
      寺岛进 Susumu Terajima
      内藤刚志 Takashi Naitô
      谷启 Kei Tani
      木村多江 Tae Kimura
      伊势谷友介 Yûsuke Iseya
      香川京子 Kyôko Kagawa
      相泽虎之助 Toranosuke Aizawa
      吉野纱香 Sayaka Yoshino
      阿部隆史 Sadao Abe
      白川和子 Kazuko Shirakawa
      志贺广太郎 Kotaro Shiga
      石堂夏央 Natsuo Ishidô

◎简  介
    纯洁无瑕的天国,宁静祥和。逝者乘坐通往天国的列车,来到位于天国与人间的小站作短暂停留。在接下来的一周时间,他们将努力回忆一生中最幸福的时刻,然后由天国的工作人员拍成影片,放映留念。逝者们或娓娓道来,或情绪激动,或沉默不语,那一个个平凡温馨的小故事在天国宛若秋日午后的时光中缓缓流淌……   本片荣获1999年Manaki兄弟国际电影节铜相机300奖、1999年布宜诺斯艾利斯国际独立电影节最佳影片和最佳剧本奖、2000年每日电影最佳艺术指导奖、1999年法国南特三大洲电影节最佳电影奖、1998年圣•塞巴斯蒂安国际电影节影评人费比西奖、1998年都灵国际青年人电影节最佳剧本奖。

##### MediaInfo ######
General
Unique ID : 68353822451569941607210047612996962186 (0x336C77A4124685291A2F502937D6478A)
Complete name : After.Life.1998.BluRay.1080p.LPCM2.0.x264-DreamHD.mkv
Duration : 1 h 58 min
Overall bit rate : 10.7 Mb/s

Video
ID : 1
Format : AVC
Format/Info : Advanced Video Codec
Format profile : [email protected]
Format settings : CABAC / 4 Ref Frames
Format settings, CABAC : Yes
Format settings, Reference frames : 4 frames
Codec ID : V_MPEG4/ISO/AVC
Duration : 1 h 58 min
Bit rate : 8 262 kb/s
Width : 1 792 pixels
Height : 1 080 pixels
Display aspect ratio : 5:3
Frame rate mode : Constant
Frame rate : 23.976 (24000/1001) FPS
Color space : YUV
Chroma subsampling : 4:2:0
Bit depth : 8 bits
Scan type : Progressive
Bits/(Pixel*Frame) : 0.178
Stream size : 6.86 GiB (77%)
Writing library : x264 core 164 r3094 bfc87b7
Encoding settings : cabac=1 / ref=4 / deblock=1:-3:-3 / analyse=0x3:0x133 / me=umh / subme=11 / psy=1 / psy_rd=1.00:0.00 / mixed_ref=1 / me_range=64 / chroma_me=1 / trellis=2 / 8x8dct=1 / cqm=0 / deadzone=21,11 / fast_pskip=0 / chroma_qp_offset=-2 / threads=24 / lookahead_threads=6 / sliced_threads=0 / nr=0 / decimate=0 / interlaced=0 / bluray_compat=0 / constrained_intra=0 / bframes=12 / b_pyramid=2 / b_adapt=2 / b_bias=0 / direct=3 / weightb=1 / open_gop=0 / weightp=2 / keyint=250 / keyint_min=23 / scenecut=40 / intra_refresh=0 / rc=crf / mbtree=0 / crf=18.0 / qcomp=0.70 / qpmin=0 / qpmax=69 / qpstep=4 / ip_ratio=1.30 / pb_ratio=1.20 / aq=3:0.80
Default : Yes
Forced : No
Color range : Limited
Color primaries : BT.709
Matrix coefficients : BT.709

Audio
ID : 2
Format : PCM
Format settings : Little / Signed
Codec ID : A_PCM/INT/LIT
Duration : 1 h 58 min
Bit rate mode : Constant
Bit rate : 2 304 kb/s
Channel(s) : 2 channels
Sampling rate : 48.0 kHz
Frame rate : 200.000 FPS (240 SPF)
Bit depth : 24 bits
Stream size : 1.91 GiB (22%)
Language : Japanese
Default : Yes
Forced : No

Text #1
ID : 3
Format : PGS
Codec ID : S_HDMV/PGS
Codec ID/Info : Picture based subtitle format used on BDs/HD-DVDs
Duration : 1 h 58 min
Bit rate : 32.2 kb/s
Frame rate : 0.352 FPS
Count of elements : 2500
Stream size : 27.3 MiB (0%)
Language : Japanese
Default : Yes
Forced : No

Text #2
ID : 4
Format : PGS
Codec ID : S_HDMV/PGS
Codec ID/Info : Picture based subtitle format used on BDs/HD-DVDs
Duration : 1 h 58 min
Bit rate : 28.8 kb/s
Frame rate : 0.347 FPS
Count of elements : 2471
Stream size : 24.5 MiB (0%)
Language : English
Default : Yes
Forced : No

Text #3
ID : 5
ID in the original source medium : 4610 (0x1202)
Format : PGS
Codec ID : S_HDMV/PGS
Codec ID/Info : Picture based subtitle format used on BDs/HD-DVDs
Duration : 1 h 55 min
Bit rate : 19.7 kb/s
Frame rate : 0.358 FPS
Count of elements : 2480
Stream size : 16.3 MiB (0%)
Title : Chs
Language : Chinese
Default : Yes
Forced : No
Original source medium : Blu-ray

Text #4
ID : 6
ID in the original source medium : 4611 (0x1203)
Format : PGS
Codec ID : S_HDMV/PGS
Codec ID/Info : Picture based subtitle format used on BDs/HD-DVDs
Duration : 1 h 55 min
Bit rate : 20.4 kb/s
Frame rate : 0.358 FPS
Count of elements : 2480
Stream size : 16.9 MiB (0%)
Title : Cht
Language : Chinese
Default : Yes
Forced : No
Original source medium : Blu-ray

Menu
00:00:00.000 : en:第 01 章
00:12:24.535 : en:第 02 章
00:31:17.000 : en:第 03 章
00:49:27.673 : en:第 04 章
01:11:48.679 : en:第 05 章
01:30:27.130 : en:第 06 章
01:47:55.677 : en:第 07 章
01:51:44.197 : en:第 08 章


部分资源为软字幕,移动端推荐播放器:MxPlayer,nPlayer,infuse ,其他播放器请自行尝试。

部分资源为软字幕,电脑端推荐播放器:PotPlayer,完美解码,KMPLAYER,其他播放器请自行尝试。



1 个附件 售价 大小 下载 时间

After.Life.1998.BluRay.1080p.LPCM2.0.x264-DreamHD[1LOU.ME].torrent 0 金币 25.11K 1407 次 2月前

#1楼
发帖时间:2024-02-02 21:50:21   |   回复数:1
jokingcheung
超凡入圣№
谢谢分享
2月前 #2楼
游客组