Asuka601
隐世仙人♂

[2021] [日本] [剧情] [WEB-1080P] 蜂蜜柠檬苏打[中文字幕].Honey.Lemon.Soda.2021.1080p.CATCHPLAY.WEB-DL.H264.AAC-SONYHD 3.22GB

-->

完整标题:蜂蜜柠檬苏打[中文字幕].Honey.Lemon.Soda.2021.1080p.CATCHPLAY.WEB-DL.H264.AAC-SONYHD 3.22GB



◎标  题 蜂蜜柠檬苏打
◎译  名 Honey Lemon Soda
◎片  名 ハニーレモンソーダ
◎年  代 2021
◎产  地 日本
◎类  别 剧情 / 喜剧 / 爱情
◎语  言 日语
◎上映日期 2021-07-09(日本)
◎IMDb评分 5.7/10 (172人评价)
◎IMDb链接 https://www.imdb.com/title/tt14311250/
◎豆瓣评分 5.7/10 (4914人评价)
◎豆瓣链接 https://movie.douban.com/subject/35204897/
◎片  长 111分钟
◎导  演 神徳幸治 Koji Shintoku
◎编  剧 吉川菜美 Nami Kikkawa
◎演  员 吉川爱 Ai Yoshikawa
      堀田真由 Mayu Hotta
      冈本夏美 Natsumi Okamoto
      坂东龙汰 Ryota Bando
      滨田龙臣 Tatsuomi Hamada
      拉乌卢 Raul
      柳百合菜 Yurina Yanagi
      小山内花凜 Karin Osanai
      香音 Kanon
      村田凪 Nagi Murata

◎简  介
    本作は、中学時代に“石”と呼ばれていじめられていた少女・石森羽花(いしもりうか)が、自由奔放で人気者な少年・三浦界(みうらかい)と関わりを深めていく中で、少しずつ積極的になっていくさまを描く青春物語。

点击图片可查看大图

软字幕无法在截图上展现,HDR版本/杜比视界版本截图会出现颜色异常,请使用支持的设备播放!

##### MediaInfo ######
General
Unique ID : 296859663124016931763094654034854737433 (0xDF55176935B9C44B597F427892FEF619)
Complete name : Honey.Lemon.Soda.2021.1080p.CATCHPLAY.WEB-DL.H264.AAC-SONYHD.mkv
Duration : 1 h 51 min
Overall bit rate mode : Variable
Overall bit rate : 4 143 kb/s

Video
ID : 1
Format : AVC
Format/Info : Advanced Video Codec
Format profile : [email protected]
Format settings : CABAC / 4 Ref Frames
Format settings, CABAC : Yes
Format settings, Reference frames : 4 frames
Format settings, GOP : M=3, N=48
Codec ID : V_MPEG4/ISO/AVC
Duration : 1 h 51 min
Bit rate mode : Variable
Bit rate : 4 012 kb/s
Maximum bit rate : 6 000 kb/s
Width : 1 920 pixels
Height : 1 080 pixels
Display aspect ratio : 16:9
Frame rate mode : Constant
Frame rate : 24.000 FPS
Color space : YUV
Chroma subsampling : 4:2:0
Bit depth : 8 bits
Scan type : Progressive
Bits/(Pixel*Frame) : 0.081
Stream size : 3.11 GiB (97%)
Default : Yes
Forced : No

Audio
ID : 2
Format : AAC LC
Format/Info : Advanced Audio Codec Low Complexity
Codec ID : A_AAC-2
Duration : 1 h 51 min
Bit rate : 128 kb/s
Channel(s) : 2 channels
Channel layout : L R
Sampling rate : 48.0 kHz
Frame rate : 46.875 FPS (1024 SPF)
Compression mode : Lossy
Stream size : 102 MiB (3%)
Language : Japanese
Default : Yes
Forced : No

Text #1
ID : 3
Format : UTF-8
Codec ID : S_TEXT/UTF8
Codec ID/Info : UTF-8 Plain Text
Duration : 1 h 50 min
Bit rate : 26 b/s
Frame rate : 0.163 FPS
Count of elements : 1079
Stream size : 21.7 KiB (0%)
Title : Chinese Simplified
Language : Chinese
Default : No
Forced : No

Text #2
ID : 4
Format : UTF-8
Codec ID : S_TEXT/UTF8
Codec ID/Info : UTF-8 Plain Text
Duration : 1 h 50 min
Bit rate : 26 b/s
Frame rate : 0.163 FPS
Count of elements : 1079
Stream size : 21.7 KiB (0%)
Title : Chinese Traditional
Language : Chinese
Default : No
Forced : No


部分资源为软字幕,移动端推荐播放器:MxPlayer,nPlayer,infuse ,其他播放器请自行尝试。

部分资源为软字幕,电脑端推荐播放器:PotPlayer,完美解码,KMPLAYER,其他播放器请自行尝试。



1 个附件 售价 大小 下载 时间

Honey.Lemon.Soda.2021.1080p.CATCHPLAY.WEB-DL.H264.AAC-SONYHD[1LOU.ME].torrent 0 金币 10.91K 1015 次 2月前

#1楼
发帖时间:2024-01-31 21:33:42   |   回复数:0
游客组