Asuka601
隐世仙人♂

[2023] [日本] [剧情] [BD-1080P] 美少女战士Cosmos 剧场版 后篇[中文字幕].2023.1080p.BluRay.x264.DTS-SONYHD 9.31GB

-->

完整标题:美少女战士Cosmos 剧场版 后篇[中文字幕].2023.1080p.BluRay.x264.DTS-SONYHD 9.31GB



◎标  题 美少女战士Cosmos 剧场版 后篇
◎译  名 美少女战士 新版动画剧场版 银河之影章 后篇
◎片  名 劇場版 美少女戦士セーラームーンCosmos 後編
◎年  代 2023
◎产  地 日本
◎类  别 剧情 / 科幻 / 动画
◎语  言 日语
◎上映日期 2023-06-15(中国大陆(上海国际电影节)) / 2023-06-30(日本)
◎IMDb链接 https://www.imdb.com/title//
◎豆瓣链接 https://movie.douban.com/subject/35883410/
◎片  长 80分钟
◎导  演 高桥知也 Takahashi Tomoya
◎编  剧 笔安一幸 Kazuyuki Fudeyasu
      武内直子 Naoko Takeuchi
◎演  员 三石琴乃 Kotono Mitsuishi
      福圆美里 Misato Fukuen
      野岛健儿 Kenji Nojima
      金元寿子 Hisako Kanemoto
      佐藤利奈 Rina Satou
      小清水亚美 Ami Koshimizu
      伊藤静 Shizuka Ito
      皆川纯子 Junko Minagawa
      大原沙耶香 Sayaka Ohara
      前田爱 Maeda Ai
      藤井雪代 Yukiyo Fujii
      广桥凉 Ryô Hirohashi
      村田太志 Taishi Murata
      中川翔子 Shôko Nakagawa
      井上麻里奈 Marina Inoue
      早见沙织 Saori Hayami
      佐仓绫音 Ayane Sakura
      北川景子 Keiko Kitagawa
      水树奈奈 Nana Mizuki
      林原惠美 Megumi Hayashibara

◎简  介
    《美少女战士》的新剧场版《美少女战士Cosmos》将于2023年初夏分为前后两部上映。本作为《美少女战士》系列的最终章《银河之影篇》,新的敌人嘉拉西亚出现。三石琴乃、金元寿子、佐藤利奈、小清水亚美、伊藤静、福圆美里、皆川纯子、大原沙耶加、前田爱、藤井幸代、野岛健儿等将继续参与配音。

点击图片可查看大图

软字幕无法在截图上展现,HDR版本/杜比视界版本截图会出现颜色异常,请使用支持的设备播放!

##### MediaInfo ######
General
Unique ID : 84821437871714718280427428903827977577 (0x3FD003C42FA18F8B7B0AE4F5E786B569)
Complete name : Pretty.Guardian.Sailor.Moon.Cosmos.The.Movie.Part.2.2023.1080p.BluRay.x264.DTS-SONYHD.mkv
Duration : 1 h 20 min
Overall bit rate : 16.5 Mb/s

Video
ID : 1
Format : AVC
Format/Info : Advanced Video Codec
Format profile : [email protected]
Format settings : CABAC / 4 Ref Frames
Format settings, CABAC : Yes
Format settings, Reference frames : 4 frames
Codec ID : V_MPEG4/ISO/AVC
Duration : 1 h 20 min
Bit rate : 15.0 Mb/s
Width : 1 920 pixels
Height : 1 080 pixels
Display aspect ratio : 16:9
Frame rate mode : Constant
Frame rate : 23.976 (24000/1001) FPS
Color space : YUV
Chroma subsampling : 4:2:0
Bit depth : 8 bits
Scan type : Progressive
Bits/(Pixel*Frame) : 0.302
Stream size : 8.46 GiB (91%)
Writing library : x264 core 164 r3107+55M 1028c06 t_mod_New [(8 & 10)-bit@all X86_64]
Encoding settings : cabac=1 / ref=4 / deblock=1:-3:-3 / analyse=0x3:0x133 / me=umh / subme=11 / psy=1 / fade_compensate=0.00 / psy_rd=0.50:0.00 / mixed_ref=1 / me_range=48 / chroma_me=1 / trellis=2 / 8x8dct=1 / cqm=0 / deadzone=21,11 / fast_pskip=0 / chroma_qp_offset=-3 / threads=34 / lookahead_threads=8 / sliced_threads=0 / nr=0 / decimate=0 / interlaced=0 / bluray_compat=0 / constrained_intra=0 / fgo=0 / bframes=11 / b_pyramid=2 / b_adapt=2 / b_bias=0 / direct=3 / weightb=1 / open_gop=0 / weightp=2 / keyint=240 / keyint_min=1 / scenecut=40 / intra_refresh=0 / rc_lookahead=72 / rc=crf / mbtree=0 / crf=16.0000 / qcomp=0.65 / qpmin=0:0:0 / qpmax=69:69:69 / qpstep=4 / vbv_maxrate=62500 / vbv_bufsize=78125 / crf_max=0.0 / nal_hrd=none / filler=0 / ip_ratio=1.20 / pb_ratio=1.10 / aq=3:0.70 / aq-sensitivity=10.00 / aq-factor=1.00:1.00:1.00 / aq2=0 / aq3=0
Language : English
Default : Yes
Forced : No

Audio
ID : 2
Format : DTS
Format/Info : Digital Theater Systems
Codec ID : A_DTS
Duration : 1 h 20 min
Bit rate mode : Constant
Bit rate : 1 413 kb/s
Channel(s) : 6 channels
Channel layout : C L R Ls Rs LFE
Sampling rate : 48.0 kHz
Frame rate : 93.750 FPS (512 SPF)
Bit depth : 16 bits
Compression mode : Lossy
Stream size : 816 MiB (9%)
Language : Japanese
Default : Yes
Forced : No

Text #1
ID : 3
Format : PGS
Muxing mode : zlib
Codec ID : S_HDMV/PGS
Codec ID/Info : Picture based subtitle format used on BDs/HD-DVDs
Duration : 1 h 19 min
Bit rate : 59.2 kb/s
Frame rate : 0.630 FPS
Count of elements : 3014
Stream size : 33.8 MiB (0%)
Title : chs
Language : Chinese
Default : Yes
Forced : No

Text #2
ID : 4
Format : PGS
Muxing mode : zlib
Codec ID : S_HDMV/PGS
Codec ID/Info : Picture based subtitle format used on BDs/HD-DVDs
Duration : 1 h 19 min
Bit rate : 59.7 kb/s
Frame rate : 0.630 FPS
Count of elements : 3014
Stream size : 34.1 MiB (0%)
Title : cht
Language : Chinese
Default : No
Forced : No

Text #3
ID : 5
Format : PGS
Muxing mode : zlib
Codec ID : S_HDMV/PGS
Codec ID/Info : Picture based subtitle format used on BDs/HD-DVDs
Duration : 1 h 19 min
Bit rate : 93.6 kb/s
Frame rate : 0.820 FPS
Count of elements : 3925
Stream size : 53.4 MiB (1%)
Title : jpn
Language : Japanese
Default : No
Forced : No

Menu
00:00:00.000 : en:Chapter 01
00:24:48.487 : en:Chapter 02
00:34:50.088 : en:Chapter 03
01:02:28.745 : en:Chapter 04


部分资源为软字幕,移动端推荐播放器:MxPlayer,nPlayer,infuse ,其他播放器请自行尝试。

部分资源为软字幕,电脑端推荐播放器:PotPlayer,完美解码,KMPLAYER,其他播放器请自行尝试。



1 个附件 售价 大小 下载 时间

2023.1080p.BluRay.x264.DTS-SONYHD[1LOU.ME].torrent 0 金币 26.17K 2303 次 2月前

#1楼
发帖时间:2024-01-29 15:10:59   |   回复数:0
游客组