Asuka601
隐世仙人♂

[2023] [日本] [剧情] [BD-1080P] 美少女战士Cosmos 剧场版 前篇[中文字幕].2023.1080p.BluRay.x265.10bit.DTS-SONYHD 3.41GB

-->

完整标题:美少女战士Cosmos 剧场版 前篇[中文字幕].2023.1080p.BluRay.x265.10bit.DTS-SONYHD 3.41GB



◎标  题 美少女战士Cosmos 剧场版 前篇
◎译  名 美少女战士 新版动画剧场版 银河之影章 前篇
◎片  名 劇場版 美少女戦士セーラームーンCosmos 前編
◎年  代 2023
◎产  地 日本
◎类  别 剧情 / 科幻 / 动画
◎语  言 日语
◎上映日期 2023-06-09(日本)
◎IMDb评分 7.5/10 (250人评价)
◎IMDb链接 https://www.imdb.com/title/tt19861160/
◎豆瓣评分 7.8/10 (835人评价)
◎豆瓣链接 https://movie.douban.com/subject/35883383/
◎片  长 80分钟
◎导  演 高桥知也 Takahashi Tomoya
◎编  剧 笔安一幸 Kazuyuki Fudeyasu
      武内直子 Naoko Takeuchi
◎演  员 三石琴乃 Kotono Mitsuishi
      福圆美里 Misato Fukuen
      野岛健儿 Kenji Nojima
      金元寿子 Hisako Kanemoto
      佐藤利奈 Rina Satou
      小清水亚美 Ami Koshimizu
      伊藤静 Shizuka Ito
      皆川纯子 Junko Minagawa
      大原沙耶香 Sayaka Ohara
      前田爱 Maeda Ai
      藤井雪代 Yukiyo Fujii
      广桥凉 Ryô Hirohashi
      村田太志 Taishi Murata
      中川翔子 Shôko Nakagawa
      井上麻里奈 Marina Inoue
      早见沙织 Saori Hayami
      佐仓绫音 Ayane Sakura
      村濑步 Ayumu Murase
      日笠阳子 Yoko Hikasa
      伊濑茉莉也 Mariya Ise
      工藤晴香 Haruka Kudô
      三上枝织 Shiori Mikami
      伊藤加奈惠 Kanae Ito
      水泽史绘 Fumie Mizusawa
      小松由佳 Yuka Komatsu
      水树奈奈 Nana Mizuki
      林原惠美 Megumi Hayashibara

◎简  介
    劇場版「美少女戦士セーラームーンCosmos」   2023年初夏 2部作連続公開!   セーラー戦士、最後の戦いがはじまる―。   STAFF   原作・総監修:武内直子 監督:髙橋知也 脚本:筆安一幸   キャラクターデザイン:只野和子 音楽:高梨康治 美術監督:空閑由美子(スタジオじゃっく)   アニメーション制作:東映アニメーション、スタジオディーン   C A S T   三石琴乃、金元寿子、佐藤利奈、小清水亜美、伊藤 静、福圓美里、   皆川純子、大原さやか、前田 愛、藤井ゆきよ、野島健児 ほか

点击图片可查看大图

软字幕无法在截图上展现,HDR版本/杜比视界版本截图会出现颜色异常,请使用支持的设备播放!

##### MediaInfo ######
General
Unique ID : 251486049996701289763494108965299660278 (0xBD327390D04CB7620F5C8A7B63B1A5F6)
Complete name : Pretty.Guardian.Sailor.Moon.Cosmos.The.Movie.Part.1.2023.1080p.BluRay.x265.10bit.DTS-SONYHD.mkv
Duration : 1 h 20 min
Overall bit rate : 6 105 kb/s

Video
ID : 1
Format : HEVC
Format/Info : High Efficiency Video Coding
Format profile : Main 10@L5@Main
Codec ID : V_MPEGH/ISO/HEVC
Duration : 1 h 20 min
Bit rate : 4 603 kb/s
Width : 1 920 pixels
Height : 1 080 pixels
Display aspect ratio : 16:9
Frame rate mode : Constant
Frame rate : 23.976 (24000/1001) FPS
Color space : YUV
Chroma subsampling : 4:2:0
Bit depth : 10 bits
Bits/(Pixel*Frame) : 0.093
Stream size : 2.57 GiB (75%)
Writing library : x265 3.5g2b25c9ba0+45:[Windows][GCC 10.2.0][64 bit] Yuuki 10bit+8bit+12bit
Encoding settings : rc=crf / crf=16.0000 / qcomp=0.65 / qpstep=4 / stats-write=0 / stats-read=0 / no-lossless / no-cu-lossless / aq-mode=3 / aq-strength=0.70 / cbqpoffs=0 / crqpoffs=0 / ipratio=1.20 / pbratio=1.10 / psy-rd=1.00 / psy-rdoq=0.00 / deblock=0:0 / ref=6 / limit-refs=1 / no-limit-modes / bframes=8 / b-adapt=2 / bframe-bias=0 / b-pyramid / b-intra / weightp / weightb / min-keyint=24 / max-keyint=240 / rc-lookahead=24 / gop-lookahead=0 / scenecut=40 / hist-scenecut=0 / radl=0 / max-cu-size=64 / min-cu-size=8 / me=3 / subme=7 / merange=48 / rdoq-level=0 / rd=4 / rdpenalty=0 / dynamic-rd=0.00 / no-rd-refine / ----- / cutree / sao / no-rect / no-amp / no-open-gop / wpp / no-pmode / no-pme / no-psnr / no-ssim / nr-intra=0 / nr-inter=0 / no-constrained-intra / no-strong-intra-smoothing / max-tu-size=32 / tu-inter-depth=1 / tu-intra-depth=1 / limit-tu=0 / qg-size=32 / qpmax=69 / qpmin=0 / ----- / cpuid=1111039 / frame-threads=5 / numa-pools=+ / log-level=2 / input-csp=1 / input-res=1920x1080 / interlace=0 / level-idc=0 / high-tier=1 / uhd-bd=0 / no-allow-non-conformance / no-repeat-headers / aud / no-hrd / info / hash=0 / no-temporal-layers / lookahead-slices=0 / no-splice / no-intra-refresh / no-ssim-rd / signhide / no-tskip / max-merge=3 / temporal-mvp / no-frame-dup / no-hme / no-analyze-src-pics / no-sao-non-deblock / selective-sao=4 / early-skip / rskip / no-fast-intra / no-tskip-fast / no-splitrd-skip / zone-count=0 / no-strict-cbr / no-rc-grain / no-const-vbv / sar=0 / overscan=0 / videoformat=5 / range=0 / colorprim=2 / transfer=2 / colormatrix=2 / chromaloc=0 / display-window=0 / cll=0,0 / min-luma=0 / max-luma=1023 / log2-max-poc-lsb=8 / vui-timing-info / vui-hrd-info / slices=1 / no-opt-qp-pps / no-opt-ref-list-length-pps / no-multi-pass-opt-rps / scenecut-bias=0.05 / hist-threshold=0.03 / no-opt-cu-delta-qp / no-aq-motion / no-hdr10 / no-hdr10-opt / no-dhdr10-opt / no-idr-recovery-sei / analysis-reuse-level=0 / analysis-save-reuse-level=0 / analysis-load-reuse-level=0 / scale-factor=0 / refine-intra=0 / refine-inter=0 / refine-mv=1 / refine-ctu-distortion=0 / no-limit-sao / ctu-info=0 / no-lowpass-dct / refine-analysis-type=0 / copy-pic=1 / max-ausize-factor=1.0 / no-dynamic-refine / no-single-sei / no-hevc-aq / no-svt / no-field / qp-adaptation-range=1.00 / scenecut-aware-qp=0conformance-window-offsets / right=0 / bottom=0 / decoder-max-rate=0 / no-vbv-live-multi-pass
Language : English
Default : Yes
Forced : No

Audio
ID : 2
Format : DTS
Format/Info : Digital Theater Systems
Codec ID : A_DTS
Duration : 1 h 20 min
Bit rate mode : Constant
Bit rate : 1 413 kb/s
Channel(s) : 6 channels
Channel layout : C L R Ls Rs LFE
Sampling rate : 48.0 kHz
Frame rate : 93.750 FPS (512 SPF)
Bit depth : 16 bits
Compression mode : Lossy
Stream size : 809 MiB (23%)
Language : Japanese
Default : Yes
Forced : No

Text #1
ID : 3
Format : PGS
Muxing mode : zlib
Codec ID : S_HDMV/PGS
Codec ID/Info : Picture based subtitle format used on BDs/HD-DVDs
Duration : 1 h 19 min
Bit rate : 45.0 kb/s
Frame rate : 0.649 FPS
Count of elements : 3104
Stream size : 25.7 MiB (1%)
Title : chs
Language : Chinese
Default : Yes
Forced : No

Text #2
ID : 4
Format : PGS
Muxing mode : zlib
Codec ID : S_HDMV/PGS
Codec ID/Info : Picture based subtitle format used on BDs/HD-DVDs
Duration : 1 h 19 min
Bit rate : 45.7 kb/s
Frame rate : 0.649 FPS
Count of elements : 3104
Stream size : 26.0 MiB (1%)
Title : cht
Language : Chinese
Default : No
Forced : No

Text #3
ID : 5
Format : PGS
Muxing mode : zlib
Codec ID : S_HDMV/PGS
Codec ID/Info : Picture based subtitle format used on BDs/HD-DVDs
Duration : 1 h 19 min
Bit rate : 101 kb/s
Frame rate : 0.872 FPS
Count of elements : 4172
Stream size : 57.8 MiB (2%)
Title : jpn
Language : Japanese
Default : No
Forced : No

Menu
00:00:00.000 : en:Chapter 01
00:25:05.504 : en:Chapter 02
00:38:39.317 : en:Chapter 03
00:51:30.087 : en:Chapter 04


部分资源为软字幕,移动端推荐播放器:MxPlayer,nPlayer,infuse ,其他播放器请自行尝试。

部分资源为软字幕,电脑端推荐播放器:PotPlayer,完美解码,KMPLAYER,其他播放器请自行尝试。



1 个附件 售价 大小 下载 时间

2023.1080p.BluRay.x265.10bit.DTS-SONYHD[1LOU.ME].torrent 0 金币 11.46K 2751 次 2月前

#1楼
发帖时间:2024-01-29 15:09:55   |   回复数:0
游客组