Asuka601
隐世仙人♂

[2023] [日本] [动画] [BD-1080P] 名侦探柯南:黑铁的鱼影[中文字幕].2023.1080p.JPN.BluRay.x265.10bit.TrueHD.5.1-NukeHD 5.51GB

-->

完整标题:名侦探柯南:黑铁的鱼影[中文字幕].2023.1080p.JPN.BluRay.x265.10bit.TrueHD.5.1-NukeHD 5.51GB



◎标  题 名侦探柯南:黑铁的鱼影
◎译  名 名侦探柯南剧场版26 / 黒鉄の魚影 / Detective Conan: Black Iron Submarine
◎片  名 名探偵コナン 黒鉄の魚影
◎年  代 2023
◎产  地 日本
◎类  别 动画
◎语  言 日语
◎上映日期 2023-12-16(中国大陆) / 2023-04-14(日本)
◎IMDb评分 7.5/10 (1189人评价)
◎IMDb链接 https://www.imdb.com/title/tt27521477/
◎豆瓣评分 6.9/10 (9564人评价)
◎豆瓣链接 https://movie.douban.com/subject/35873969/
◎片  长 110分钟
◎导  演 立川让 Yuzuru Tachikawa
◎编  剧 樱井武晴 Takahiro Sakurai
      青山刚昌 Gôshô Aoyama
◎演  员 高山南 Minami Takayama
      林原惠美 Megumi Hayashibara
      山崎和佳奈 Wakana Yamazaki
      小山力也 Rikiya Koyama
      山口胜平 Kappei Yamaguchi
      古谷彻 Tôru Furuya
      池田秀一 Shûichi Ikeda
      置鲇龙太郎 Ryôtarô Okiayu
      三石琴乃 Kotono Mitsuishi
      岸野幸正 Kishino Yukimasa
      一城美由希 Ichijou Miyuki
      土师孝也 Takaya Hashi
      乃村健次 Kenji Nomura
      飞田展男 Nobuo Tobita
      绪方贤一 Kenichi Ogata
      松井菜樱子 Naoko Matsui
      岩居由希子 Yukiko Iwai
      大谷育江 Ikue Ootani
      茶风林 Chafûrin
      汤屋敦子 Atsuko Yuya
      井上和彦 Kazuhiko Inoue
      千叶繁 Shigeru Chiba
      堀之纪 Yukitoshi Hori
      立木文彦 Fumihiko Tachiki
      小山茉美 Mami Koyama
      井上喜久子 Kikuko Inoue
      木下浩之 Hiroyuki Kinosha
      玉川纱己子 Sakiko Tamagawa
      种崎敦美 Atsumi Tanezaki
      诹访部顺一 Junichi Suwabe
      神谷浩史 Hiroshi Kamiya
      土田大 Hiroshi Tsuchida
      泽木郁也 Ikuya Sawaki
      宫原永海 Nami Miyahara
      村濑步 Ayumu Murase
      泽田敏子 Toshiko Sawada
      鸟海胜美 Toriumi Katsumi
      藤原泰浩 Yasuhiro
      金光宣明 Kanemitsu Nobuaki
      冈井克升 Okai Katsunori
      下地紫野 Shino Shimoji
      泽村一树 Ikki Sawamura
      平野文 Fumi Hirano
      古川慎 Makoto Furukawa
      梁田清之 Kiyoyuki Yanada
      高木涉 Wataru Takagi
      关根明良 Akira Sekine
      小野大辅 Daisuke Ono

◎简  介
    故事发生在东京八丈岛近海,一座将全球各地警方监控相连接的高科技设施——“太平洋浮标”即将启动。为了与欧洲刑警组织管辖的范围联网,来自世界各地的工程师聚集在这里。基于人脸识别的全新“黑科技”也正在测试中……   与此同时,柯南一行人前往八丈岛观鲸,途中柯南接到冲矢昴(赤井秀一)的电话,被告知欧洲刑警组织成员在德国遭到琴酒的杀害。为调查真相的柯南潜入“太平洋浮标”。正当工程师们正在为系统启动而展开准备工作时,一桩案件突然发生!一名女工程师被黑暗组织绑架,她手中存有核心技术的U盘也落入了黑暗组织手中!   此时,水下传来未知潜水艇逼近的声音,令人毛骨悚然,一个神秘的黑影也正在悄悄接近灰原哀……

点击图片可查看大图

软字幕无法在截图上展现,HDR版本/杜比视界版本截图会出现颜色异常,请使用支持的设备播放!

##### MediaInfo ######
General
Unique ID : 323974409713088829814392865028271427524 (0xF3BB33A1D5DA608EB7BE2D7752E2CFC4)
Complete name : Detective.Conan.Black.Iron.Submarine.2023.1080p.JPN.BluRay.x265.10bit.TrueHD.5.1-NukeHD.mkv
Duration : 1 h 49 min
Overall bit rate mode : Variable
Overall bit rate : 7 192 kb/s

Video
ID : 1
ID in the original source medium : 4113 (0x1011)
Format : HEVC
Format/Info : High Efficiency Video Coding
Format profile : Main [email protected]@High
Codec ID : V_MPEGH/ISO/HEVC
Duration : 1 h 49 min
Bit rate : 2 027 kb/s
Width : 1 920 pixels
Height : 1 080 pixels
Display aspect ratio : 16:9
Frame rate mode : Constant
Frame rate : 23.976 (24000/1001) FPS
Color space : YUV
Chroma subsampling : 4:2:0 (Type 0)
Bit depth : 10 bits
Bits/(Pixel*Frame) : 0.041
Stream size : 1.55 GiB (28%)
Writing library : x265 3.5+100-8f18e3ad3:[Windows][GCC 5.4.0][64 bit] 10bit
Encoding settings : cpuid=1111039 / frame-threads=5 / numa-pools=32,32 / wpp / no-pmode / no-pme / no-psnr / no-ssim / log-level=2 / input-csp=1 / input-res=1920x1080 / interlace=0 / total-frames=0 / level-idc=51 / high-tier=1 / uhd-bd=0 / ref=4 / no-allow-non-conformance / no-repeat-headers / annexb / no-aud / no-eob / no-eos / no-hrd / info / hash=0 / temporal-layers=0 / no-open-gop / min-keyint=1 / keyint=240 / gop-lookahead=0 / bframes=4 / b-adapt=2 / b-pyramid / bframe-bias=0 / rc-lookahead=40 / lookahead-slices=0 / scenecut=40 / no-hist-scenecut / radl=0 / no-splice / no-intra-refresh / ctu=32 / min-cu-size=8 / no-rect / no-amp / max-tu-size=32 / tu-inter-depth=1 / tu-intra-depth=1 / limit-tu=0 / rdoq-level=2 / dynamic-rd=0.00 / no-ssim-rd / signhide / no-tskip / nr-intra=0 / nr-inter=0 / no-constrained-intra / no-strong-intra-smoothing / max-merge=3 / limit-refs=3 / limit-modes / me=1 / subme=2 / merange=44 / temporal-mvp / no-frame-dup / no-hme / weightp / no-weightb / no-analyze-src-pics / deblock=-1:-1 / no-sao / no-sao-non-deblock / rd=4 / selective-sao=0 / no-early-skip / rskip / rskip-edge-threshold=0.050000 / no-fast-intra / no-tskip-fast / no-cu-lossless / no-b-intra / no-splitrd-skip / rdpenalty=0 / psy-rd=2.00 / psy-rdoq=1.00 / no-rd-refine / no-lossless / cbqpoffs=-2 / crqpoffs=-2 / rc=crf / crf=23.0 / qcomp=0.70 / qpstep=4 / stats-write=0 / stats-read=0 / vbv-maxrate=40001 / vbv-bufsize=15000 / vbv-init=0.9 / min-vbv-fullness=50.0 / max-vbv-fullness=80.0 / crf-max=0.0 / crf-min=0.0 / ipratio=1.40 / pbratio=1.30 / aq-mode=2 / aq-strength=0.90 / no-cutree / zone-count=0 / no-strict-cbr / qg-size=32 / no-rc-grain / qpmax=69 / qpmin=0 / no-const-vbv / sar=1 / overscan=0 / videoformat=5 / range=0 / colorprim=2 / transfer=2 / colormatrix=2 / chromaloc=1 / chromaloc-top=0 / chromaloc-bottom=0 / display-window=0 / cll=0,0 / min-luma=0 / max-luma=1023 / log2-max-poc-lsb=8 / vui-timing-info / vui-hrd-info / slices=1 / no-opt-qp-pps / no-opt-ref-list-length-pps / no-multi-pass-opt-rps / scenecut-bias=0.05 / no-opt-cu-delta-qp / no-aq-motion / no-hdr10 / no-hdr10-opt / no-dhdr10-opt / no-idr-recovery-sei / analysis-reuse-level=0 / analysis-save-reuse-level=0 / analysis-load-reuse-level=0 / scale-factor=0 / refine-intra=0 / refine-inter=0 / refine-mv=1 / refine-ctu-distortion=0 / no-limit-sao / ctu-info=0 / no-lowpass-dct / refine-analysis-type=0 / copy-pic=1 / max-ausize-factor=1.0 / no-dynamic-refine / no-single-sei / no-hevc-aq / no-svt / no-field / qp-adaptation-range=1.00 / scenecut-aware-qp=0conformance-window-offsets / right=0 / bottom=0 / decoder-max-rate=0 / no-vbv-live-multi-pass / no-mcstf / no-sbrc
Language : English
Default : No
Forced : No
Color range : Limited
Original source medium : Blu-ray

Audio #1
ID : 2
ID in the original source medium : 4352 (0x1100)
Format : MLP FBA
Format/Info : Meridian Lossless Packing FBA
Commercial name : Dolby TrueHD
Codec ID : A_TRUEHD
Duration : 1 h 49 min
Bit rate mode : Variable
Bit rate : 1 463 kb/s
Maximum bit rate : 3 093 kb/s
Channel(s) : 6 channels
Channel layout : L R C LFE Ls Rs
Sampling rate : 48.0 kHz
Frame rate : 1 200.000 FPS (40 SPF)
Bit depth : 24 bits
Compression mode : Lossless
Stream size : 1.12 GiB (20%)
Title : 环绕声 5.1
Language : Japanese
Default : Yes
Forced : No
Original source medium : Blu-ray

Audio #2
ID : 3
ID in the original source medium : 4352 (0x1100)
Format : AC-3
Format/Info : Audio Coding 3
Commercial name : Dolby Digital
Codec ID : A_AC3
Duration : 1 h 49 min
Bit rate mode : Constant
Bit rate : 448 kb/s
Channel(s) : 6 channels
Channel layout : L R C LFE Ls Rs
Sampling rate : 48.0 kHz
Frame rate : 31.250 FPS (1536 SPF)
Compression mode : Lossy
Stream size : 351 MiB (6%)
Title : 环绕声 5.1
Language : Japanese
Service kind : Complete Main
Default : No
Forced : No
Original source medium : Blu-ray

Audio #3
ID : 4
ID in the original source medium : 4353 (0x1101)
Format : PCM
Format settings : Little / Signed
Codec ID : A_PCM/INT/LIT
Duration : 1 h 49 min
Bit rate mode : Constant
Bit rate : 1 536 kb/s
Channel(s) : 2 channels
Sampling rate : 48.0 kHz
Frame rate : 30.000 FPS (1600 SPF)
Bit depth : 16 bits
Stream size : 1.18 GiB (21%)
Title : 立体声
Language : Japanese
Default : No
Forced : No
Original source medium : Blu-ray

Audio #4
ID : 5
ID in the original source medium : 4354 (0x1102)
Format : PCM
Format settings : Little / Signed
Codec ID : A_PCM/INT/LIT
Duration : 1 h 49 min
Bit rate mode : Constant
Bit rate : 1 536 kb/s
Channel(s) : 2 channels
Sampling rate : 48.0 kHz
Frame rate : 30.000 FPS (1600 SPF)
Bit depth : 16 bits
Stream size : 1.18 GiB (21%)
Title : 立体声
Language : Japanese
Default : No
Forced : No
Original source medium : Blu-ray

Text #1
ID : 6
ID in the original source medium : 4608 (0x1200)
Format : PGS
Muxing mode : zlib
Codec ID : S_HDMV/PGS
Codec ID/Info : Picture based subtitle format used on BDs/HD-DVDs
Duration : 1 h 49 min
Bit rate : 254 kb/s
Frame rate : 1.463 FPS
Count of elements : 9593
Stream size : 198 MiB (4%)
Language : Japanese
Default : No
Forced : No
Original source medium : Blu-ray

Text #2
ID : 7
ID in the original source medium : 4609 (0x1201)
Format : PGS
Muxing mode : zlib
Codec ID : S_HDMV/PGS
Codec ID/Info : Picture based subtitle format used on BDs/HD-DVDs
Duration : 1 h 49 min
Bit rate : 14.3 kb/s
Frame rate : 0.489 FPS
Count of elements : 3206
Stream size : 11.1 MiB (0%)
Language : Chinese
Default : No
Forced : No
Original source medium : Blu-ray

Menu
00:00:00.000 : ja:章节 01
00:01:56.324 : ja:章节 02
00:08:18.206 : ja:章节 03
00:11:08.250 : ja:章节 04
00:18:35.906 : ja:章节 05
00:24:09.990 : ja:章节 06
00:31:08.741 : ja:章节 07
00:35:17.448 : ja:章节 08
00:46:07.598 : ja:章节 09
00:49:49.653 : ja:章节 10
00:56:20.126 : ja:章节 11
01:04:23.860 : ja:章节 12
01:12:38.062 : ja:章节 13
01:17:48.955 : ja:章节 14
01:25:54.315 : ja:章节 15
01:30:58.911 : ja:章节 16
01:34:49.517 : ja:章节 17
01:37:57.580 : ja:章节 18
01:42:25.139 : ja:章节 19
01:49:22.556 : ja:章节 20


部分资源为软字幕,移动端推荐播放器:MxPlayer,nPlayer,infuse ,其他播放器请自行尝试。

部分资源为软字幕,电脑端推荐播放器:PotPlayer,完美解码,KMPLAYER,其他播放器请自行尝试。



1 个附件 售价 大小 下载 时间

2023.1080p.JPN.BluRay.x265.10bit.TrueHD.5.1-NukeHD[1LOU.ME].torrent 0 金币 16.68K 20795 次 2月前

#1楼
发帖时间:2023-12-04 11:28:52   |   回复数:3
wjshen
一派掌门
感谢分享!
2月前 #2楼
阿菈呆
武林高手
谢谢
2月前 #3楼
Squall001
武林高手
迅雷下都下不起。。你们怎么下载的?
2月前 #4楼
游客组