Asuka601
隐世仙人♂

[2016] [日本] [剧情] [BD-1080P] 恶魔蛙男[中文字幕].Museum.2016.BluRay.1080p.DTS.x264-DreamHD 13.62GB

-->

完整标题:恶魔蛙男[中文字幕].Museum.2016.BluRay.1080p.DTS.x264-DreamHD 13.62GB



◎标  题 恶魔蛙男
◎译  名 Museum / 追凶雨
◎片  名 ミュージアム
◎年  代 2016
◎产  地 日本
◎类  别 剧情 / 惊悚 / 犯罪
◎语  言 日语
◎上映日期 2016-10-08(釜山电影节) / 2016-11-12(日本)
◎IMDb评分 6.1/10 (1053人评价)
◎IMDb链接 https://www.imdb.com/title/tt5227140/
◎豆瓣评分 6.4/10 (14267人评价)
◎豆瓣链接 https://movie.douban.com/subject/26661608/
◎片  长 132分钟
◎导  演 大友启史 Keishi Ohtomo
◎编  剧 大友启史 Keishi Ohtomo
      高桥泉 Izumi Takahashi
      藤井清美 Kiyomi Fujii
      巴亮介 Ryôsuke Tomoe
◎演  员 小栗旬 Shun Oguri
      尾野真千子 Machiko Ono
      野村周平 Shuhei Nomura
      大森南朋 Nao Omori
      丸山智己 Tomomi Maruyama
      伊武雅刀 Masatô Ibu
      田畑智子 Tomoko Tabata
      市川实日子 Mikako Ichikawa
      松重丰 Yutaka Matsushige
      妻夫木聪 Satoshi Tsumabuki
      渊上泰史 Yasushi Fuchikami
      今村美乃 Yoshino Imamura
      伊藤健太郎 Kentaro Ito

◎简  介
    大雨瓢泼的都市,邪恶欲望肆意横行。不经意间残忍而血腥的猎奇案件接连发生,有的人被饿犬撕咬而死,有的人被割掉和出生时同样重量的肉而死掉,有的被平均切成两半分送给妻子与情人,有的则被冻在冰柜中永葆不老的青春,更有人嘴里被塞满了大大小小的钉子。正为家庭矛盾所苦恼的搜查一课刑警泽村久志(小栗旬 饰)受命追查此事,随着调查的深入,他发现凶手全系一人所为,而且热衷在雨天行凶作案,之后他更发现所有死者全与许多年前的一起案件有关,偏偏泽村离家出走的妻子(尾野真千子 饰)也被卷入其中。争分夺秒的追查,凶手已对泽村亮出獠牙……   本片根据日本漫画家巴亮介的同名原作改编。

点击图片可查看大图

软字幕无法在截图上展现,HDR版本/杜比视界版本截图会出现颜色异常,请使用支持的设备播放!

##### MediaInfo ######
General
Unique ID : 240326383331508787546830670154472321266 (0xB4CD2D84DAAB2DC296D17A0E57FF70F2)
Complete name : Museum.2016.BluRay.1080p.DTS.x264-DreamHD.mkv
Duration : 2 h 12 min
Overall bit rate : 14.8 Mb/s

Video
ID : 1
Format : AVC
Format/Info : Advanced Video Codec
Format profile : [email protected]
Format settings : CABAC / 4 Ref Frames
Format settings, CABAC : Yes
Format settings, Reference frames : 4 frames
Codec ID : V_MPEG4/ISO/AVC
Duration : 2 h 12 min
Bit rate : 13.2 Mb/s
Width : 1 920 pixels
Height : 804 pixels
Display aspect ratio : 2.40:1
Frame rate mode : Constant
Frame rate : 23.976 (24000/1001) FPS
Color space : YUV
Chroma subsampling : 4:2:0
Bit depth : 8 bits
Scan type : Progressive
Bits/(Pixel*Frame) : 0.357
Stream size : 12.2 GiB (90%)
Writing library : x264 core 148 r2638 7599210
Encoding settings : cabac=1 / ref=4 / deblock=1:0:-3 / analyse=0x3:0x113 / me=umh / subme=11 / psy=1 / psy_rd=1.00:0.00 / mixed_ref=1 / me_range=32 / chroma_me=0 / trellis=2 / 8x8dct=1 / cqm=0 / deadzone=21,11 / fast_pskip=0 / chroma_qp_offset=-2 / threads=12 / lookahead_threads=3 / sliced_threads=0 / nr=0 / decimate=0 / interlaced=0 / bluray_compat=0 / constrained_intra=0 / bframes=10 / b_pyramid=2 / b_adapt=2 / b_bias=0 / direct=1 / weightb=1 / open_gop=0 / weightp=2 / keyint=480 / keyint_min=24 / scenecut=40 / intra_refresh=0 / rc_lookahead=40 / rc=crf / mbtree=0 / crf=17.0 / qcomp=0.60 / qpmin=0 / qpmax=69 / qpstep=4 / vbv_maxrate=40000 / vbv_bufsize=30000 / crf_max=0.0 / nal_hrd=none / filler=0 / ip_ratio=1.30 / pb_ratio=1.20 / aq=3:0.90
Language : English
Default : Yes
Forced : No
Color range : Limited
Matrix coefficients : BT.709

Audio
ID : 2
Format : DTS
Format/Info : Digital Theater Systems
Codec ID : A_DTS
Duration : 2 h 12 min
Bit rate mode : Constant
Bit rate : 1 509 kb/s
Channel(s) : 6 channels
Channel layout : C L R Ls Rs LFE
Sampling rate : 48.0 kHz
Frame rate : 93.750 FPS (512 SPF)
Bit depth : 24 bits
Compression mode : Lossy
Stream size : 1.39 GiB (10%)
Language : Japanese
Default : Yes
Forced : No

Text #1
ID : 3
Format : PGS
Muxing mode : zlib
Codec ID : S_HDMV/PGS
Codec ID/Info : Picture based subtitle format used on BDs/HD-DVDs
Duration : 2 h 7 min
Bit rate : 12.8 kb/s
Frame rate : 0.351 FPS
Count of elements : 2680
Stream size : 11.7 MiB (0%)
Language : Japanese
Default : Yes
Forced : No

Text #2
ID : 4
Format : PGS
Muxing mode : zlib
Codec ID : S_HDMV/PGS
Codec ID/Info : Picture based subtitle format used on BDs/HD-DVDs
Duration : 2 h 7 min
Bit rate : 12.5 kb/s
Frame rate : 0.316 FPS
Count of elements : 2410
Stream size : 11.4 MiB (0%)
Language : Chinese
Default : No
Forced : No

Text #3
ID : 5
Format : PGS
Muxing mode : zlib
Codec ID : S_HDMV/PGS
Codec ID/Info : Picture based subtitle format used on BDs/HD-DVDs
Duration : 2 h 7 min
Bit rate : 12.8 kb/s
Frame rate : 0.316 FPS
Count of elements : 2410
Stream size : 11.7 MiB (0%)
Language : Chinese
Default : No
Forced : No

Menu
00:00:00.000 : en:Chapter 1
00:09:56.887 : en:Chapter 2
00:20:51.667 : en:Chapter 3
00:33:50.069 : en:Chapter 4
00:46:14.730 : en:Chapter 5
00:52:45.579 : en:Chapter 6
01:07:19.869 : en:Chapter 7
01:12:29.261 : en:Chapter 8
01:20:21.316 : en:Chapter 9
01:33:26.308 : en:Chapter 10
01:43:58.106 : en:Chapter 11
01:50:50.351 : en:Chapter 12
02:01:57.810 : en:Chapter 13
02:08:14.895 : en:Chapter 14


部分资源为软字幕,移动端推荐播放器:MxPlayer,nPlayer,infuse ,其他播放器请自行尝试。

部分资源为软字幕,电脑端推荐播放器:PotPlayer,完美解码,KMPLAYER,其他播放器请自行尝试。



1 个附件 售价 大小 下载 时间

Museum.2016.BluRay.1080p.DTS.x264-DreamHD[1LOU.ME].torrent 0 金币 36.95K 2023 次 2月前

#1楼
发帖时间:2023-12-03 18:31:38   |   回复数:0
游客组