travismk
一代宗师

[更 早] [欧美] [动作] [BD-4K] 金刚:传奇重生 King.Kong.1976.2160p.BluRay.x265.10bit.SDR.DTS-HD.MA.5.1-SWTYBLZ 53.69GB

-->

帖子完整标题:金刚:传奇重生 King.Kong.1976.2160p.BluRay.x265.10bit.SDR.DTS-HD.MA.5.1-SWTYBLZ 53.69GB



◎标  题 金刚:传奇重生
◎译  名 金刚
◎片  名 King Kong
◎年  代 1976
◎产  地 美国
◎类  别 动作 / 奇幻 / 冒险
◎语  言 英语
◎上映日期 1976-09-08(法国)
◎IMDb评分 5.9/10 (32263人评价)
◎IMDb链接 https://www.imdb.com/title/tt0074751/
◎豆瓣评分 6.4/10 (1375人评价)
◎豆瓣链接 https://movie.douban.com/subject/1300354/
◎片  长 134分钟
◎导  演 约翰·吉勒明 John Guillermin
◎编  剧 詹姆斯·阿什莫尔·克里尔曼 James Ashmore Creelman
      露丝·罗斯 Ruth Rose
      梅里安·C·库珀 Merian C. Cooper
      埃德加·华莱士 Edgar Wallace
      洛伦佐·森普尔 Lorenzo Semple Jr.
◎演  员 杰夫·布里吉斯 Jeff Bridges
      查尔斯·格罗丁 Charles Grodin
      杰西卡·兰格 Jessica Lange
      约翰·兰道夫 John Randolph
      勒内·奥贝尔若努瓦 Rene Auberjonois
      尤利乌斯•哈里斯 Julius Harris
      杰克·奥哈罗兰 Jack O'Halloran
      Dennis Fimple Dennis Fimple
      埃德·劳特尔 Ed Lauter
      马里奥加洛 Mario Gallo
      尊龙 John Lone
      Garry Walberg Garry Walberg
      约翰·艾加尔 John Agar
      Sid Conrad Sid Conrad
      韦恩·赫弗雷 Wayne Heffley
      福里斯特·J·阿克曼 Forrest J. Ackerman
      里克·贝克 Rick Baker
      柯宾·伯恩森 Corbin Bernsen
      Ray Buktenica Ray Buktenica
      彼特·库伦 Peter Cullen
      James Dunaway
      Ned Gill Ned Gill
      唐诺·葛勒特 Donald F. Glut
      Walt Gorney Walt Gorney
      布伦特·哈夫 Brent Huff
      Shawn McAllister Shawn McAllister
      伊娃·麦克维 Eve McVeagh
      乔·皮斯科波 Joe Piscopo
      Harrison Ressler Harrison Ressler
      Ron Roccia Ron Roccia
      David Roya David Roya
      Billy Zoom Billy Zoom
      约翰·巴里 John Barry
      Robert Gundlach Robert Gundlach
      Del Acevedo Del Acevedo
      罗伯·博汀 Rob Bottin
      Pat Kehoe Pat Kehoe
      David McGiffert David McGiffert
      Nathan Haggard Nathan Haggard
      Barry Nolan Barry Nolan

◎简  介
  佛烈到印尼一小岛寻找石油,途中遇偷渡客积斯高与沉船获救的戴安。戴安被士人捉去祭神,原来士人膜拜的金刚是一头身高十丈的大猩猩。金刚对戴安起了怜惜之心,但佛烈却将金刚迷倒,送到纽约展览。金刚醒来却找寻戴安,大闹纽约。

Video
ID : 1
Format : HEVC
Format/Info : High Efficiency Video Coding
Format profile : Main [email protected]@High
Codec ID : V_MPEGH/ISO/HEVC
Duration : 2 h 14 min
Bit rate : 52.1 Mb/s
Width : 3 840 pixels
Height : 1 634 pixels
Display aspect ratio : 2.35:1
Frame rate mode : Constant
Frame rate : 24.000 FPS
Color space : YUV
Chroma subsampling : 4:2:0
Bit depth : 10 bits
Bits/(Pixel*Frame) : 0.346
Stream size : 49.1 GiB (92%)
Writing library : x265 3.0ed72af837053:[Windows][GCC 8.2.0][64 bit] 10bit
Encoding settings : cpuid=1111039 / frame-threads=6 / numa-pools=40 / wpp / no-pmode / no-pme / no-psnr / no-ssim / log-level=2 / input-csp=1 / input-res=3840x1634 / interlace=0 / total-frames=194126 / level-idc=51 / high-tier=1 / uhd-bd=0 / ref=3 / no-allow-non-conformance / repeat-headers / annexb / aud / hrd / info / hash=0 / no-temporal-layers / no-open-gop / min-keyint=1 / keyint=24 / gop-lookahead=0 / bframes=4 / b-adapt=2 / b-pyramid / bframe-bias=0 / rc-lookahead=25 / lookahead-slices=4 / scenecut=40 / radl=0 / no-splice / no-intra-refresh / ctu=64 / min-cu-size=8 / no-rect / no-amp / max-tu-size=32 / tu-inter-depth=1 / tu-intra-depth=1 / limit-tu=0 / rdoq-level=0 / dynamic-rd=0.00 / no-ssim-rd / signhide / no-tskip / nr-intra=0 / nr-inter=0 / no-constrained-intra / strong-intra-smoothing / max-merge=2 / limit-refs=3 / no-limit-modes / me=1 / subme=2 / merange=57 / temporal-mvp / weightp / no-weightb / no-analyze-src-pics / deblock=0:0 / no-sao / no-sao-non-deblock / rd=3 / no-early-skip / rskip / no-fast-intra / no-tskip-fast / no-cu-lossless / no-b-intra / no-splitrd-skip / rdpenalty=0 / psy-rd=2.00 / psy-rdoq=0.00 / no-rd-refine / no-lossless / cbqpoffs=0 / crqpoffs=0 / rc=crf / crf=21.0 / qcomp=0.60 / qpstep=4 / stats-write=0 / stats-read=0 / vbv-maxrate=160000 / vbv-bufsize=160000 / vbv-init=0.9 / crf-max=0.0 / crf-min=0.0 / ipratio=1.40 / pbratio=1.30 / aq-mode=1 / aq-strength=1.00 / cutree / zone-count=0 / no-strict-cbr / qg-size=32 / no-rc-grain / qpmax=69 / qpmin=0 / no-const-vbv / sar=1 / overscan=0 / videoformat=5 / range=0 / colorprim=2 / transfer=2 / colormatrix=2 / chromaloc=0 / display-window=0 / max-cll=0,0 / min-luma=0 / max-luma=1023 / log2-max-poc-lsb=8 / vui-timing-info / vui-hrd-info / slices=1 / opt-qp-pps / opt-ref-list-length-pps / no-multi-pass-opt-rps / scenecut-bias=0.05 / no-opt-cu-delta-qp / no-aq-motion / no-hdr / no-hdr-opt / no-dhdr10-opt / no-idr-recovery-sei / analysis-reuse-level=5 / scale-factor=0 / refine-intra=0 / refine-inter=0 / refine-mv=0 / refine-ctu-distortion=0 / no-limit-sao / ctu-info=0 / no-lowpass-dct / refine-analysis-type=0 / copy-pic=1 / max-ausize-factor=1.0 / no-dynamic-refine / no-single-sei / no-hevc-aq / qp-adaptation-range=1.00
Default : Yes
Forced : No

Audio #1
ID : 2
ID in the original source medium : 4354 (0x1102)
Format : DTS XLL
Format/Info : Digital Theater Systems
Commercial name : DTS-HD Master Audio
Codec ID : A_DTS
Duration : 2 h 14 min
Bit rate mode : Variable
Bit rate : 3 934 kb/s
Channel(s) : 6 channels
Channel layout : C L R Ls Rs LFE
Sampling rate : 48.0 kHz
Frame rate : 93.750 FPS (512 SPF)
Bit depth : 24 bits
Compression mode : Lossless
Stream size : 3.70 GiB (7%)
Title : DTS-HD MA 5.1
Language : English
Default : Yes
Forced : No
Original source medium : Blu-ray

Audio #2
ID : 3
Format : AC-3
Format/Info : Audio Coding 3
Commercial name : Dolby Digital
Codec ID : A_AC3
Duration : 2 h 14 min
Bit rate mode : Constant
Bit rate : 640 kb/s
Channel(s) : 6 channels
Channel layout : L R C LFE Ls Rs
Sampling rate : 48.0 kHz
Frame rate : 31.250 FPS (1536 SPF)
Compression mode : Lossy
Stream size : 617 MiB (1%)
Title : DD 5.1
Language : English
Service kind : Complete Main
Default : No
Forced : No

Text #1
ID : 4
Format : UTF-8
Codec ID : S_TEXT/UTF8
Codec ID/Info : UTF-8 Plain Text
Duration : 2 h 10 min
Bit rate : 24 b/s
Frame rate : 0.075 FPS
Count of elements : 587
Stream size : 23.8 KiB (0%)
Language : English
Default : Yes
Forced : No

Text #2
ID : 5
Format : UTF-8
Codec ID : S_TEXT/UTF8
Codec ID/Info : UTF-8 Plain Text
Duration : 2 h 10 min
Bit rate : 33 b/s
Frame rate : 0.158 FPS
Count of elements : 1239
Stream size : 31.9 KiB (0%)
Title : SHOUT
Language : English
Default : No
Forced : No

Text #3
ID : 6
ID in the original source medium : 4768 (0x12A0)
Format : PGS
Muxing mode : zlib
Codec ID : S_HDMV/PGS
Codec ID/Info : Picture based subtitle format used on BDs/HD-DVDs
Duration : 2 h 11 min
Bit rate : 16.7 kb/s
Frame rate : 0.151 FPS
Count of elements : 1196
Stream size : 15.7 MiB (0%)
Language : German
Default : No
Forced : No
Original source medium : Blu-ray

Text #4
ID : 7
ID in the original source medium : 4769 (0x12A1)
Format : PGS
Muxing mode : zlib
Codec ID : S_HDMV/PGS
Codec ID/Info : Picture based subtitle format used on BDs/HD-DVDs
Duration : 2 h 10 min
Bit rate : 15.3 kb/s
Frame rate : 0.151 FPS
Count of elements : 1184
Stream size : 14.3 MiB (0%)
Language : English
Default : No
Forced : No
Original source medium : Blu-ray

Text #5
ID : 8
ID in the original source medium : 4770 (0x12A2)
Format : PGS
Muxing mode : zlib
Codec ID : S_HDMV/PGS
Codec ID/Info : Picture based subtitle format used on BDs/HD-DVDs
Duration : 2 h 14 min
Bit rate : 13.9 kb/s
Frame rate : 0.175 FPS
Count of elements : 1404
Stream size : 13.4 MiB (0%)
Language : French
Default : No
Forced : No
Original source medium : Blu-ray

Menu
00:00:00.000 : en:Chapter 01
00:14:46.000 : en:Chapter 02
00:24:45.000 : en:Chapter 03
00:31:57.000 : en:Chapter 04
00:43:51.000 : en:Chapter 05
00:54:12.000 : en:Chapter 06
01:06:57.000 : en:Chapter 07
01:16:43.000 : en:Chapter 08
01:31:10.000 : en:Chapter 09
01:42:34.000 : en:Chapter 10
01:55:49.000 : en:Chapter 11
02:09:41.000 : en:Chapter 12





1 个附件 售价 大小 下载 时间

King.Kong.1976.2160p.BluRay.x265.10bit.SDR.DTS-HD.MA.5.1-SWTYBLZ.torrent 0 金币 67.81K 343 次 2月前

#1楼
发帖时间:2022-11-26 18:50:50   |   回复数:0
游客组