topgood
一代宗师

[2022] [欧美] [动作] [WEB-1080P] 暗影特工 Section.8.2022.1080p.WEBRip.DD5.1.x264-CM 4.87GB

-->

帖子完整标题:暗影特工 Section.8.2022.1080p.WEBRip.DD5.1.x264-CM 4.87GB



◎标  题 暗影特工
◎译  名 Section 8
◎片  名 Section Eight
◎年  代 2022
◎产  地 美国
◎类  别 动作 / 犯罪
◎语  言 英语
◎上映日期 2022-09-23(美国)
◎IMDb链接 https://www.imdb.com/title/tt14950412/
◎豆瓣链接 https://movie.douban.com/subject/35737733/
◎片  长 98分钟
◎导  演 克里斯蒂安·塞斯玛 Christian Sesma
◎编  剧 查德·洛 Chad Law
◎演  员 斯科特·阿金斯 Scott Adkins
      瑞恩·柯万腾 Ryan Kwanten
      杜夫·龙格尔 Dolph Lundgren
      米基·洛克 Mickey Rourke
      德蒙特·莫罗尼 Dermot Mulroney
      罗伯特·拉萨多 Robert LaSardo
      保罗·斯隆 Paul Sloan

◎简  介
  一名退役士兵在为遇害的家人复仇后被捕入狱,而在他出狱后得到了秘密政府部门的招募。

Video
ID : 1
Format : AVC
Format/Info : Advanced Video Codec
Format profile : [email protected]
Format settings : CABAC / 5 Ref Frames
Format settings, CABAC : Yes
Format settings, Reference frames : 5 frames
Codec ID : V_MPEG4/ISO/AVC
Duration : 1 h 38 min
Bit rate : 6 717 kb/s
Width : 1 918 pixels
Height : 796 pixels
Display aspect ratio : 2.40:1
Frame rate mode : Constant
Frame rate : 23.976 (24000/1001/189150) FPS
Color space : YUV
Chroma subsampling : 4:2:0
Bit depth : 8 bits
Scan type : Progressive
Bits/(Pixel*Frame) : 0.184
Stream size : 4.60 GiB (95%)
Language : English
Default : Yes
Forced : No
Color range : Limited
Color primaries : BT.709
Transfer characteristics : BT.709
Matrix coefficients : BT.709

Audio
ID : 2
Format : AC-3
Format/Info : Audio Coding 3
Commercial name : Dolby Digital
Codec ID : A_AC3
Duration : 1 h 38 min
Bit rate mode : Constant
Bit rate : 384 kb/s
Channel(s) : 6 channels
Channel layout : L R C LFE Ls Rs
Sampling rate : 48.0 kHz
Frame rate : 31.250 FPS (1536 SPF)
Compression mode : Lossy
Stream size : 269 MiB (5%)
Language : English
Service kind : Complete Main
Default : Yes
Forced : No

Text #1
ID : 3
Format : UTF-8
Codec ID : S_TEXT/UTF8
Codec ID/Info : UTF-8 Plain Text
Duration : 1 h 35 min
Bit rate : 53 b/s
Frame rate : 0.235 FPS
Count of elements : 1353
Stream size : 37.8 KiB (0%)
Title : SDH
Language : English
Default : No
Forced : No

Text #2
ID : 4
Format : UTF-8
Codec ID : S_TEXT/UTF8
Codec ID/Info : UTF-8 Plain Text
Duration : 1 h 34 min
Bit rate : 50 b/s
Frame rate : 0.218 FPS
Count of elements : 1233
Stream size : 34.9 KiB (0%)
Language : English
Default : No
Forced : No

Text #3
ID : 5
Format : UTF-8
Codec ID : S_TEXT/UTF8
Codec ID/Info : UTF-8 Plain Text
Duration : 1 h 30 min
Bit rate : 49 b/s
Frame rate : 0.214 FPS
Count of elements : 1169
Stream size : 32.9 KiB (0%)
Title : Latin American
Language : Spanish
Default : No
Forced : No

Text #4
ID : 6
Format : UTF-8
Codec ID : S_TEXT/UTF8
Codec ID/Info : UTF-8 Plain Text
Duration : 1 h 30 min
Bit rate : 49 b/s
Frame rate : 0.208 FPS
Count of elements : 1134
Stream size : 32.8 KiB (0%)
Language : French
Default : No
Forced : No

Menu
00:00:00.000 : en:Chapter 01
00:10:03.603 : en:Chapter 02
00:19:59.783 : en:Chapter 03
00:29:43.783 : en:Chapter 04
00:42:57.786 : en:Chapter 05
00:51:15.950 : en:Chapter 06
00:59:34.324 : en:Chapter 07
01:10:11.211 : en:Chapter 08
01:21:33.018 : en:Chapter 09
01:31:49.926 : en:Chapter 10





1 个附件 售价 大小 下载 时间

Section.8.2022.1080p.WEBRip.DD5.1.x264-CM.torrent 0 金币 24.93K 7406 次 4天前

#1楼
发帖时间:2022-09-23 18:10:22   |   回复数:1
linbr
武林高手
多谢楼主分享
3天前 #2楼
游客组