travismk
一代宗师

[2020] [其它] [喜剧] [WEB-1080P] 在爆炸前吻我 Kiss.Me.Before.It.Blows.Up.2020.GERMAN.1080p.WEBRip.AAC2.0.x264-playWEB 4

-->

帖子完整标题:在爆炸前吻我 Kiss.Me.Before.It.Blows.Up.2020.GERMAN.1080p.WEBRip.AAC2.0.x264-playWEB 4.99GB



◎标  题 在爆炸前吻我
◎译  名 Kiss Me Kosher
◎片  名 Kiss Me Before It Blows Up
◎年  代 2020
◎产  地 德国
◎类  别 喜剧
◎语  言 德语
◎上映日期 2020-09-07(柏林犹太电影节)
◎IMDb评分 5.7/10 (464人评价)
◎IMDb链接 https://www.imdb.com/title/tt7698982/
◎豆瓣评分 7.2/10 (263人评价)
◎豆瓣链接 https://movie.douban.com/subject/34970224/
◎片  长 106分钟
◎演  员 莫兰·罗森布拉特 Moran Rosenblatt
      路易斯·沃尔夫勒姆 Luise Wolfram
      Rivka Michaeli Rivka Michaeli
      Dafi Shoshana Alpern Dafi Shoshana Alpern

◎简  介
  A subversive love story between clashing cultures and families, KISS ME BEFORE IT BLOWS UP is a romantic misadventure crossing all borders. When two generations of Israeli women fall for a German woman and an Palestinian man, chaos follows. What happens with lovers who don't fit but do belong together?

Video
ID : 1
Format : AVC
Format/Info : Advanced Video Codec
Format profile : [email protected]
Format settings : CABAC / 1 Ref Frames
Format settings, CABAC : Yes
Format settings, Reference frames : 1 frame
Codec ID : V_MPEG4/ISO/AVC
Duration : 1 h 41 min
Bit rate mode : Variable
Bit rate : 6 935 kb/s
Maximum bit rate : 7 400 kb/s
Width : 1 920 pixels
Height : 1 080 pixels
Display aspect ratio : 16:9
Frame rate mode : Constant
Frame rate : 25.000 FPS
Color space : YUV
Chroma subsampling : 4:2:0
Bit depth : 8 bits
Scan type : Progressive
Bits/(Pixel*Frame) : 0.134
Stream size : 4.90 GiB (98%)
Default : Yes
Forced : No
Color range : Limited
Color primaries : BT.709
Transfer characteristics : BT.709
Matrix coefficients : BT.709

Audio
ID : 2
Format : AAC LC
Format/Info : Advanced Audio Codec Low Complexity
Codec ID : A_AAC-2
Duration : 1 h 41 min
Bit rate : 129 kb/s
Channel(s) : 2 channels
Channel layout : L R
Sampling rate : 48.0 kHz
Frame rate : 46.875 FPS (1024 SPF)
Compression mode : Lossy
Stream size : 93.0 MiB (2%)
Language : German
Default : Yes
Forced : No

Text #1
ID : 3
Format : UTF-8
Codec ID : S_TEXT/UTF8
Codec ID/Info : UTF-8 Plain Text
Duration : 1 h 37 min
Bit rate : 59 b/s
Frame rate : 0.213 FPS
Count of elements : 1253
Stream size : 42.8 KiB (0%)
Language : English
Default : No
Forced : No

Text #2
ID : 4
Format : UTF-8
Codec ID : S_TEXT/UTF8
Codec ID/Info : UTF-8 Plain Text
Duration : 1 h 38 min
Bit rate : 56 b/s
Frame rate : 0.213 FPS
Count of elements : 1257
Stream size : 40.7 KiB (0%)
Language : Hungarian
Default : No
Forced : No

Text #3
ID : 5
Format : UTF-8
Codec ID : S_TEXT/UTF8
Codec ID/Info : UTF-8 Plain Text
Duration : 1 h 37 min
Bit rate : 62 b/s
Frame rate : 0.213 FPS
Count of elements : 1252
Stream size : 45.0 KiB (0%)
Language : Romanian
Default : No
Forced : No





1 个附件 售价 大小 下载 时间

Kiss.Me.Before.It.Blows.Up.2020.GERMAN.1080p.WEBRip.AAC2.0.x264-playWEB.torrent 0 金币 25.62K 273 次 11天前

#1楼
发帖时间:2022-08-06 17:01:27   |   回复数:0
游客组