pdf721615074
小有名气

[2007] [内地] [流行] [MV/LIVE] 红歌经典-[刀郎-[36首MTV卡拉OK][一个奇才被苟苟营玷污啦][翻箱倒柜多年收藏/欢迎转载]

-->

红歌经典-[刀郎-[36首MTV卡拉OK][一个奇才被苟苟营玷污啦][翻箱倒柜多年收藏/欢迎转载]


Dao Lang - "Dao Lang - Complete Collection of MTV (Karaoke and MV)"


艺名:刀郎

  本名:罗林

  汉语拼音:Dao Lang

  昵称:刀哥、刀、刀刀等

  民族:汉族

  出生地:四川省内江市资中县罗泉镇

  现居住地:新疆维吾尔自治区·昌吉市

  出生日期:1971年6月22日(农历5月30 )

  生肖:猪

  星座:巨蟹座

  身高:173CM

  学历:初中肄业

  语言:普通话、四川话

  性格特质: 真诚、随和、低调

  婚姻状况:已婚

  家庭状况:刀郎,妻子朱梅,2个女儿(刀郎与前妻的女儿,刀郎与朱梅的女儿)



音质评价:


          “2004中国流行乐坛最大的发现”,独树一帜的天籁非学院派男中音、横空出世的震撼、

一个只属于刀郎的声音、沙哑(用四川话形容:“烟锅巴声音”)、老烟味、粗犷、苍凉、质朴奔放、大漠孤烟、北风割喉、阳刚味十足的放荡不羁。


           听他那苍凉的声音,听众仿佛被带到了异域的土地翱翔,感受到的是一种质朴、一种粗犷、一种深情、一种热烈、甚至还有淡淡的忧伤,

他用他独特的嗓音、深沉的情感诠释着茫茫戈壁的空旷与荒凉,演绎着来自那方神秘土地的独有风情,展示着大西北人民特有的粗犷豪迈的性格……

  粉丝名称:刀迷、稻米

  专长:词曲创作、演唱、音乐制作

  乐器:钢琴、吉他、等

  喜爱的地方:新疆

  喜爱的音乐:中国民歌

  喜爱的运动:网球

  最大的愿望:把中国民族音乐传播到世界各地

  目前所属唱片公司:环球唱片

  经纪公司:北京九雨天下音乐文化发展有限公司


内容介绍:


        刀郎原名罗林,1971年6月22日出生在四川省内江市资中县罗泉镇一个普通艺人之家,他是家中独子,身高1.73米,刀郎非常帅气。

16岁初中还未毕业,便从资中县来到内江一个歌厅里学习键盘乐器;两年后又到成都、重庆、西藏、西安,跑摊混了4年多。


            得到过原 国防时报 总编辑陈帅佛的帮助,后来,一边漂泊一边学乐器;在内江、成都一带的音乐厅里唱歌时,

组建了“手术刀”乐队,巴蜀笑星廖健当主唱,他做健盘手,他们俩配合得很好。但那时歌厅生意不好,

有时一晚上才挣20元;1991至1995年在海南唱歌时,还与几个乐手组成了“地球之子”乐队,仍做键盘手,

键盘在当时海南数一数二,很有才气,后来迫于生活乐队散了;在海南,认识了现在的妻子、新疆姑娘小朱,于1995年随她到了新疆,

成立西北音乐工作室,开始了和新疆民乐的亲密接触,出过几张专辑,都只是在新疆发行;

  1995年至2004年,曾担当新疆德威龙音像公司音乐总监,乌鲁木齐罗林音乐创作室首席制作人。


            独立担纲制作了《新疆原创第一击》、《西域情歌》、《大漠情歌》、《丝路乐魂》、《丝路乐韵》以及《走进新疆之音乐篇》等唱片。

与乌鲁木齐电视台合作的音乐电视作品《西部明珠》获中国音乐电视铜奖,与共青团乌鲁木齐市委及乌鲁木齐电视台合作的音乐电视

《志愿》获共青团中央“五个一工程”奖;2001年,刀郎还出了一张流行和时尚音乐拼凑的专辑,结果只卖了2000多张。


           遭遇失败后,天天泡图书馆,还到戈壁滩、到维吾尔族老百姓家采风。每天写三至四首歌,一年下来写了一千多首,

现在已写了3000多首歌;随着《丝路乐魂》、《西域情歌》等CD的成功上市,面对与全国市场接轨的要求,对罗林个人的包装需求也越来越重要。


            经罗林本人同意,自CD《西域情歌》的策划开始,罗林就开始以“刀郎”的名字来面向广大歌迷。刀郎这个名字的由来,

是因为他的声音特点和新疆南部麦盖提县“刀朗族”人声音很相似,都是沙哑中带着清亮。

而那里的刀郎歌舞更是以质朴、粗犷、热烈、奔放并充满神秘色彩,令人瞩目。


             2004年1月6日,《2002年第一场雪》面市后,这张专辑从新疆相继火到东北,上海、广州、西安、成都等地,惟有北京很冷静。

北京不火,就不算成功。后经著名制作人宋柯老师推荐,5月份,在北京各大音像商店上柜。没想到不到5天时间,就在北京广为传唱。最终火遍了大江南北。



个人作品:

【音乐专辑】


  《北方的天空下》

  1. 北方的天空下 2. 阿瓦日古丽 3. 草原之夜 4. 虹彩妹妹 5. 哪里来的骆驼队

  6. 沙枣花儿香 7. 花儿为什么这样红 8. 吐鲁番的葡萄熟了 9. 怀念战友

  10. 在那遥远的地方 11. 蔓莉

  《新阿瓦尔古丽》

  1. 艾里莆与赛乃姆 2. 敖包相会 3. 草原之夜 4. 冲动的惩罚 5. 情人

  6. 驼铃 7. 新阿瓦尔古丽 8. 雨中飘荡的回忆 9. 2002年的第一场雪

  《刀郎Ⅲ》

  1. 世界如此寂寞 2. 西海情歌 3.德令哈一夜 4. 花瓣下的种子 5.孤独的牧羊人

  6.手心里的温柔 7. 朝圣者的脚步 8.真爱的胸怀 9.山海天 10.高原的回忆

  《谢谢你》

  谢谢你1. 谢谢你 2. 大敦煌 3. 为什么我泪水成行 4. 爱是你我 5. 情人

  6. 冲动的惩罚 7. 2002年的第一场雪 8. 艾里蒲与赛乃姆 9. 雨中飘荡的回忆

  10. 北方的天空下 11. 大眼睛(demo珍藏版) 12. 喀什噶尔胡杨(demo珍藏版)

  《披着羊皮的狼》

  1. 披着羊皮的狼 2. 美丽的草原,我的家 3. 雁南飞 4. 吐鲁番的葡萄熟了

  5. 怀念站友 6. 花儿为什么这样红 7. 祝酒歌 8. 驼铃 9. 新疆好

  10. 阿瓦尔古丽 11. 敖包相会 12. 草原之夜

  《喀什噶尔胡杨》

  1. 喀什噶尔胡杨 2. 关于二道桥 3. 五一夜市的兄弟 4. 肖尔布拉克 5. 只有艾得勒斯能看见 6. 守候在凌晨两点的伤心秀吧 7. 大眼睛 8. 亚喀西 9. 再见乌鲁木齐 10. 打起手鼓唱起歌 11. 冰山上的雪莲

  《2002年的第一场雪》

  1. 2002年的第一场雪 2. 艾里甫与赛乃姆 3. 新阿瓦尔古丽 4. 情人

  5. 雨中飘荡的回忆 6. 冲动的惩罚 7. 新疆好 8. 萨拉姆毛主席

  9. 草原之夜 10. 祝酒歌 11. 敖包相会 12. 驼铃 13.怀念战友

  《与刀郎共舞》(remix混音专辑)

  1. 冲动的惩罚 2. 2002年的第一场雪 3. 艾里甫与赛乃姆 4. 新疆好

  5. 新阿瓦尔古丽 6. 情人

  

  《红色经典》

  1. 红星照我去战斗 2. 十送红军 3. 绣红旗 4. 九九艳阳天

  5. 共产党来了苦变甜 6. 再见吧,妈妈 7. 映山红

  8. 送别 9. 翻身农奴把歌唱 10. 我的祖国


General

Complete name                  : F:\综艺\刀郎 -《刀郎-MTV全集(卡拉OK及MV)》\刀郎.-.[情人(MTV)].VOB

Format                         : MPEG-PS

File size                      : 116 MiB

Duration                       : 3 min 13 s

Overall bit rate mode          : Constant

Overall bit rate               : 5 002 kb/s

Frame rate                     : 25.000 FPS


Video

ID                             : 224 (0xE0)

Format                         : MPEG Video

Format version                 : Version 2

Format profile                 : Main@Main

Format settings                : BVOP

Format settings, BVOP          : Yes

Format settings, Matrix        : Default

Format settings, GOP           : Variable

Format settings, picture struc : Frame

Duration                       : 3 min 13 s

Bit rate mode                  : Constant

Bit rate                       : 4 000 kb/s

Width                          : 720 pixels

Height                         : 576 pixels

Display aspect ratio           : 4:3

Frame rate                     : 25.000 FPS

Standard                       : PAL

Color space                    : YUV

Chroma subsampling             : 4:2:0

Bit depth                      : 8 bits

Scan type                      : Interlaced

Scan order                     : Bottom Field First

Compression mode               : Lossy

Bits/(Pixel*Frame)             : 0.386

Time code of first frame       : 00:00:00:00

Time code source               : Group of pictures header

Stream size                    : 92.6 MiB (80%)


Audio #1

ID                             : 189 (0xBD)-128 (0x80)

Format                         : AC-3

Format/Info                    : Audio Coding 3

Commercial name                : Dolby Digital

Muxing mode                    : DVD-Video

Duration                       : 3 min 13 s

Bit rate mode                  : Constant

Bit rate                       : 448 kb/s

Channel(s)                     : 5 channels

Channel layout                 : L R C Ls Rs

Sampling rate                  : 48.0 kHz

Frame rate                     : 31.250 FPS (1536 SPF)

Compression mode               : Lossy

Stream size                    : 10.4 MiB (9%)

Service kind                   : Complete Main


Audio #2

ID                             : 189 (0xBD)-129 (0x81)

Format                         : AC-3

Format/Info                    : Audio Coding 3

Commercial name                : Dolby Digital

Muxing mode                    : DVD-Video

Duration                       : 3 min 13 s

Bit rate mode                  : Constant

Bit rate                       : 448 kb/s

Channel(s)                     : 5 channels

Channel layout                 : L R C Ls Rs

Sampling rate                  : 48.0 kHz

Frame rate                     : 31.250 FPS (1536 SPF)

Compression mode               : Lossy

Stream size                    : 10.4 MiB (9%)

Service kind                   : Complete Main


Menu

Format                         : DVD-Video



链接:https://pan.baidu.com/s/1Jstl16qtNu89AqL3o6DcyA?pwd=huak 

提取码:huak 

--来自百度网盘超级会员V1的分享




#1楼
发帖时间:2023-09-16 12:33:16   |   回复数:5
rjl1
江湖小虾
如果能发个百度网盘就更好了,磁力链解析不出来啊?
9月前 #2楼
pdf721615074
小有名气
不知道什么问题,制作种子不能上传,因此我发布在PT站
9月前 #3楼
pdf721615074
小有名气
我先上传度娘分享看看吧
9月前 #4楼
pdf721615074
小有名气
我已经百度分享,请及时收藏,但是不敢保证长期有效。
9月前 #5楼
teddyluck
武林高手
支持支持,感谢感谢
9月前 #6楼
游客组