Asuka601
隐世仙人♂

[2022] [大陆] [奇幻] [WEB-4K] 齐天大圣[国语配音/中文字幕].Magic.Monkey.2022.2160p.WEB-DL.H265.EDR.AAC-BATWEB 8.41GB

-->

完整标题:齐天大圣[国语配音/中文字幕].Magic.Monkey.2022.2160p.WEB-DL.H265.EDR.AAC-BATWEB 8.41GB



◎标  题 齐天大圣
◎年  代 2022
◎产  地 中国大陆
◎类  别 奇幻 / 古装
◎语  言 汉语普通话
◎上映日期 2022-05-07(中国大陆)
◎IMDb链接 https://www.imdb.com/title//
◎豆瓣评分 3.9/10 (1646人评价)
◎豆瓣链接 https://movie.douban.com/subject/35030789/
◎片  长 81分钟
◎导  演 姜晓通 Xiaotong Jiang
◎编  剧 韦修亮 Xiuliang Wei
◎演  员 谢苗 Miu Tse
      徐冬冬 Dongdong Xu
      陈翊曈 Yitong Chen
      安峻岐 Junqi An
      赵云天 Yuntian Zhao

◎简  介
    影片讲述孙悟空逃出五指山后带着被欺压的妖族兄弟们再闹天宫的故事。400年前齐天大圣(谢苗饰)率领妖界攻打天庭,斗二郎戏众仙,后被如来降服镇压五指山下,一代妖王就此陨落。之后的四百年间,妖界受到仙界打压一蹶不振,400年后孙悟空在过路的小女孩阿一(陈翊曈 饰)帮助下虽逃出五指山,却也风光不再,被昔日兄弟嫌弃,在四处受难中逐渐迷失自我。《齐天大圣》围绕孙悟空的自我牺牲、自我救赎展开,燃点十足,以喜剧方式处理深刻人生问题,让观众笑中带泪。此次影片以南天门、西牛贺洲为主场景,众多西游经典人物都会悉数登场,热血对抗与催人泪下的场景将会带给观众最具独特的视觉享受。

点击图片可查看大图

软字幕无法在截图上展现,HDR版本/杜比视界版本截图会出现颜色异常,请使用支持的设备播放!

##### MediaInfo ######
General
Unique ID : 224053157658138341820290768864793533105 (0xA88F118C4902F50AB8C3B92403331AB1)
Complete name : Magic.Monkey.2022.2160p.WEB-DL.H265.EDR.AAC-BATWEB.mkv
Duration : 1 h 20 min
Overall bit rate : 14.9 Mb/s

Video
ID : 1
Format : HEVC
Format/Info : High Efficiency Video Coding
Format profile : Main@L5@Main
Codec ID : V_MPEGH/ISO/HEVC
Duration : 1 h 20 min
Bit rate : 14.7 Mb/s
Width : 3 840 pixels
Height : 1 608 pixels
Display aspect ratio : 2.40:1
Frame rate mode : Constant
Frame rate : 24.000 FPS
Color space : YUV
Chroma subsampling : 4:2:0
Bit depth : 8 bits
Bits/(Pixel*Frame) : 0.099
Stream size : 8.30 GiB (99%)
Language : Chinese
Default : Yes
Forced : No

Audio
ID : 2
Format : AAC LC
Format/Info : Advanced Audio Codec Low Complexity
Codec ID : A_AAC-2
Duration : 1 h 20 min
Bit rate : 192 kb/s
Channel(s) : 2 channels
Channel layout : L R
Sampling rate : 44.1 kHz
Frame rate : 43.066 FPS (1024 SPF)
Compression mode : Lossy
Stream size : 110 MiB (1%)
Default : No
Forced : No


部分资源为软字幕,移动端推荐播放器:MxPlayer,nPlayer,infuse ,其他播放器请自行尝试。

部分资源为软字幕,电脑端推荐播放器:PotPlayer,完美解码,KMPLAYER,其他播放器请自行尝试。

下载端推荐纯BT下载软件:qBittorrent,Bitcomet,uTorrent ,其他下载软件请自行尝试。不支持吸血迅雷。



1 个附件 售价 大小 下载 时间

Magic.Monkey.2022.2160p.WEB-DL.H265.EDR.AAC-BATWEB[1LOU.ME].torrent 0 金币 23.55K 805 次 1月前

#1楼
发帖时间:2024-04-18 16:46:58   |   回复数:0
游客组