Asuka601
隐世仙人♂

[2022] [大陆] [剧情] [WEB-1080P] 奇门暗刃[国语配音/中文字幕].Strange.Door.and.Dark.Blade.2022.1080p.WEB-DL.H264.AAC-BATWEB 1.

-->

完整标题:奇门暗刃[国语配音/中文字幕].Strange.Door.and.Dark.Blade.2022.1080p.WEB-DL.H264.AAC-BATWEB 1.24GB



◎标  题 奇门暗刃
◎年  代 2022
◎产  地 中国大陆
◎类  别 剧情 / 动作 / 悬疑 / 奇幻 / 武侠 / 古装
◎语  言 汉语普通话
◎上映日期 2022-09-06(中国大陆)
◎IMDb评分 6.4/10 (38人评价)
◎IMDb链接 https://www.imdb.com/title/tt24215878/
◎豆瓣评分 5.4/10 (1368人评价)
◎豆瓣链接 https://movie.douban.com/subject/36080961/
◎片  长 95分钟
◎导  演 霍穗强 Suiqiang Huo
◎演  员 刘泳希 Yongxi Liu
      祁圣翰 Shenghan Qi
      郑希怡 Hei-Yi Cheng
      杜玉明 Yuming Du
      张春仲 Chunzhong Zhang
      杨杏 Xing Yang

◎简  介
    宋辽太平时期,原本是秘密组织“凤火军”培养的特工唐紫烟被安插在京都皇城司任职,在她欲隐退与夫君周乾安安度此生时,夫君却被凤火军抓走以胁迫,给唐紫烟下达了新任务:刺杀来访的北朝特使皇太弟。期间周乾安被凤火军射杀命丧身前,唐紫烟决心扳倒凤火军,佯装不为所动继续深入下一步刺杀计划,却惊觉接头人竟就在身边。最终唐连同皇太弟携手做局险胜凤火军,平息了一场祸乱,京都重归太平。

点击图片可查看大图

软字幕无法在截图上展现,HDR版本/杜比视界版本截图会出现颜色异常,请使用支持的设备播放!

##### MediaInfo ######
General
Unique ID : 337449835088799860352154569119665751619 (0xFDDE7965FF4FA3F8E3D2E1CBA8EC0643)
Complete name : Strange.Door.and.Dark.Blade.2022.1080p.WEB-DL.H264.AAC-BATWEB.mkv
Duration : 1 h 35 min
Overall bit rate : 1 872 kb/s

Video
ID : 1
Format : AVC
Format/Info : Advanced Video Codec
Format profile : High@L4
Format settings : CABAC / 3 Ref Frames
Format settings, CABAC : Yes
Format settings, Reference frames : 3 frames
Codec ID : V_MPEG4/ISO/AVC
Duration : 1 h 35 min
Bit rate : 1 680 kb/s
Width : 1 920 pixels
Height : 816 pixels
Display aspect ratio : 2.35:1
Frame rate mode : Constant
Frame rate : 24.000 FPS
Color space : YUV
Chroma subsampling : 4:2:0
Bit depth : 8 bits
Scan type : Progressive
Bits/(Pixel*Frame) : 0.045
Stream size : 1.11 GiB (90%)
Language : Chinese
Default : Yes
Forced : No
Color range : Limited
Color primaries : BT.709
Transfer characteristics : BT.709
Matrix coefficients : BT.709

Audio
ID : 2
Format : AAC LC
Format/Info : Advanced Audio Codec Low Complexity
Codec ID : A_AAC-2
Duration : 1 h 35 min
Bit rate : 192 kb/s
Channel(s) : 2 channels
Channel layout : L R
Sampling rate : 44.1 kHz
Frame rate : 43.066 FPS (1024 SPF)
Compression mode : Lossy
Stream size : 129 MiB (10%)
Default : No
Forced : No


部分资源为软字幕,移动端推荐播放器:MxPlayer,nPlayer,infuse ,其他播放器请自行尝试。

部分资源为软字幕,电脑端推荐播放器:PotPlayer,完美解码,KMPLAYER,其他播放器请自行尝试。

下载端推荐纯BT下载软件:qBittorrent,Bitcomet,uTorrent ,其他下载软件请自行尝试。不支持吸血迅雷。



1 个附件 售价 大小 下载 时间

Strange.Door.and.Dark.Blade.2022.1080p.WEB-DL.H264.AAC-BATWEB[1LOU.ME].torrent 0 金币 5.68K 574 次 1月前

#1楼
发帖时间:2024-04-18 16:06:51   |   回复数:0
游客组