Asuka601
隐世仙人♂

[更 早] [欧美] [剧情] [WEB-4K] 苹果酒屋法则[国英多音轨/中文字幕].The.Cider.House.Rules.1999.2160p.WEB-DL.H265.DDP5.1.2Audio-Dr

-->

完整标题:苹果酒屋法则[国英多音轨/中文字幕].The.Cider.House.Rules.1999.2160p.WEB-DL.H265.DDP5.1.2Audio-DreamHD 13.64GB



◎标  题 苹果酒屋法则
◎译  名 苹果酒屋规则 / 心尘往事(台) / 总有骄阳(港)
◎片  名 The Cider House Rules
◎年  代 1999
◎产  地 美国
◎类  别 剧情 / 爱情
◎语  言 英语
◎上映日期 1999-09-07(威尼斯电影节) / 1999-12-17(美国)
◎IMDb评分 7.4/10 (103718人评价)
◎IMDb链接 https://www.imdb.com/title/tt0124315/
◎豆瓣评分 8.2/10 (30065人评价)
◎豆瓣链接 https://movie.douban.com/subject/1296821/
◎片  长 125分钟
◎导  演 拉斯·霍尔斯道姆 Lasse Hallström
◎编  剧 约翰·欧文 John Irving
◎演  员 托比·马奎尔 Tobey Maguire
      查理兹·塞隆 Charlize Theron
      迈克尔·凯恩 Michael Caine
      德尔罗伊·林多 Delroy Lindo
      保罗·路德 Paul Rudd
      简·亚历山大 Jane Alexander
      凯西·贝克 Kathy Baker
      埃里卡·巴杜 Erykah Badu
      基南·卡尔金 Kieran Culkin
      凯特·尼莉甘 Kate Nelligan
      Heavy D Heavy D
      K·托德·弗里曼 K. Todd Freeman
      帕兹·德拉维尔塔 Paz de la Huerta
      J·K·西蒙斯 J.K. Simmons
      伊万·帕克 Evan Parke
      吉米·弗林 Jimmy Flynn
      朗尼·法默 Lonnie Farmer
      埃里克·佩尔·沙利文 Erik Per Sullivan
      Spencer Diamond Spencer Diamond
      丝凯·麦柯·巴楚沙 Skye McCole Bartusiak
      安妮·科利 Annie Corley
      Mary Bogue Mary Bogue
      Victoria Stankiewicz Victoria Stankiewicz
      约翰·欧文 John Irving
      埃里克·布鲁诺·伯格曼 Eric Bruno Borgman
      凯文·查普曼 Kevin Chapman
      约翰托宾 John H. Tobin
      沈晓谦 Xiaoqian Shen
      金锋 Feng Jin

◎简  介
    Homer Wells(托比·马奎尔 Tobey Maguire 饰)从小在St. Clouds的一所孤儿院长大,孤儿院的院长Dr. Wilbur Larch(迈克尔·凯恩 Michael Caine 饰)对他关怀备至。Homer和其他孤儿一起健康快乐地成长,他还在Dr. Larch身边学习,掌握了精湛的医术,尤其是妇科手术。有一天,中尉Wally Worthington(保罗·路德 Paul Rudd 饰)带着他的未婚妻Candy Kendall(查理兹·塞隆 Charlize Theron 饰)来到孤儿院进行堕胎手术。术后,Homer询问Wally能否带他到外面的世界去看一看,Wally欣然答应。于是Homer跟着Wally离开了孤儿院,生命中第一次见到了大海,还在Wally家的苹果庄园找了份工作。不久后Wally又去缅甸参加战争。Homer和Candy在日复一日地相处中滋生了爱情。而另一方面,Homer收到孤儿院寄来的信,Dr. Larch希望他回去当他的助手,但Homer拒绝了,他更想留在外面的世界。此时Wally前线传来噩耗,Wally受伤下半身瘫痪即将回家。Homer该如何处理这些问题呢?   本片根据John Irving的同名小说改编,获得七项奥斯卡提名,赢得最佳男配角和最佳改编剧本奖。

点击图片可查看大图

软字幕无法在截图上展现,HDR版本/杜比视界版本截图会出现颜色异常,请使用支持的设备播放!

##### MediaInfo ######
General
Unique ID : 159034634556416475561112052857287644481 (0x77A4F4DC71537BA2E4528424C7B69541)
Complete name : The.Cider.House.Rules.1999.2160p.WEB-DL.H265.DDP5.1.2Audio-DreamHD.mkv
Duration : 2 h 4 min
Overall bit rate : 15.6 Mb/s

Video
ID : 1
Format : HEVC
Format/Info : High Efficiency Video Coding
Format profile : Main@L5@Main
Codec ID : V_MPEGH/ISO/HEVC
Duration : 2 h 4 min
Bit rate : 15.0 Mb/s
Width : 3 840 pixels
Height : 1 632 pixels
Display aspect ratio : 2.35:1
Frame rate mode : Constant
Frame rate : 23.976 (23976/1000) FPS
Original frame rate : 23.976 (24000/1001) FPS
Color space : YUV
Chroma subsampling : 4:2:0
Bit depth : 8 bits
Bits/(Pixel*Frame) : 0.100
Stream size : 13.1 GiB (96%)
Default : Yes
Forced : No
Color range : Limited

Audio #1
ID : 2
Format : E-AC-3
Format/Info : Enhanced AC-3
Commercial name : Dolby Digital Plus
Codec ID : A_EAC3
Duration : 2 h 4 min
Bit rate mode : Constant
Bit rate : 256 kb/s
Channel(s) : 6 channels
Channel layout : L R C LFE Ls Rs
Sampling rate : 48.0 kHz
Frame rate : 31.250 FPS (1536 SPF)
Compression mode : Lossy
Stream size : 229 MiB (2%)
Title : [DDP5.1]
Language : English
Service kind : Complete Main
Default : Yes
Forced : No

Audio #2
ID : 3
Format : AAC LC
Format/Info : Advanced Audio Codec Low Complexity
Codec ID : A_AAC-2
Duration : 2 h 4 min
Bit rate : 192 kb/s
Channel(s) : 2 channels
Channel layout : L R
Sampling rate : 44.1 kHz
Frame rate : 43.066 FPS (1024 SPF)
Compression mode : Lossy
Stream size : 169 MiB (1%)
Title : [AAC2.0]
Language : English
Default : No
Forced : No

Audio #3
ID : 4
Format : AAC LC
Format/Info : Advanced Audio Codec Low Complexity
Codec ID : A_AAC-2
Duration : 2 h 4 min
Bit rate : 192 kb/s
Channel(s) : 2 channels
Channel layout : L R
Sampling rate : 44.1 kHz
Frame rate : 43.066 FPS (1024 SPF)
Compression mode : Lossy
Stream size : 169 MiB (1%)
Title : Mandarin [AAC2.0]
Language : Chinese
Default : No
Forced : No


部分资源为软字幕,移动端推荐播放器:MxPlayer,nPlayer,infuse ,其他播放器请自行尝试。

部分资源为软字幕,电脑端推荐播放器:PotPlayer,完美解码,KMPLAYER,其他播放器请自行尝试。



1 个附件 售价 大小 下载 时间

The.Cider.House.Rules.1999.2160p.WEB-DL.H265.DDP5.1.2Audio-DreamHD[1LOU.ME].torrent 0 金币 37.21K 1407 次 1月前

#1楼
发帖时间:2024-03-01 08:20:26   |   回复数:0
游客组