Asuka601
隐世仙人♂

[2022] [欧美] [剧情] [BD-1080P] 鲸[中文字幕].The.Whale.2022.BluRay.REMUX.1080p.AVC.DTS-HD.MA5.1-DreamHD 23.51GB

-->

完整标题:鲸[中文字幕].The.Whale.2022.BluRay.REMUX.1080p.AVC.DTS-HD.MA5.1-DreamHD 23.51GB



◎标  题 鲸
◎译  名 庞然大物 / 我的鲸鱼老爸(台)
◎片  名 The Whale
◎年  代 2022
◎产  地 美国
◎类  别 剧情 / 同性
◎语  言 英语
◎上映日期 2022-09-04(威尼斯电影节) / 2022-12-09(美国)
◎IMDb评分 7.7/10 (196501人评价)
◎IMDb链接 https://www.imdb.com/title/tt13833688/
◎豆瓣评分 7.9/10 (61086人评价)
◎豆瓣链接 https://movie.douban.com/subject/35312421/
◎片  长 117分钟
◎导  演 达伦·阿伦诺夫斯基 Darren Aronofsky
◎编  剧 塞缪尔·D·亨特 Samuel D. Hunter
◎演  员 布兰登·费舍 Brendan Fraser
      萨迪·辛克 Sadie Sink
      周洪 Hong Chau
      泰·辛普金斯 Ty Simpkins
      萨曼莎·莫顿 Samantha Morton
      实谛·史达仁 Sathya Sridharan
      杰西·辛克 Jacey Sink

◎简  介
    影片改编自Samuel D. Hunter创作的同名戏剧,讲述在爱达荷州乡村一个破旧的公寓里,重达272公斤的英语教师查理(布兰登·费舍 饰)隐居避世,固执、坚决地要把自己吃死。查理在中年时期为了同性情人抛弃家人,但情人过世后因为悲伤和内疚暴饮暴食,并且尝试与17岁的女儿艾莉(萨迪·辛克 饰)修复关系。   随着查理越来越接近不可避免的命运,他的朋友丽兹(周洪 饰),一个愤世嫉俗的无神论者护士,以及埃尔德·托马斯(泰·辛普金斯 饰),一个年轻的传教士都试图在查理身上找到能被拯救的意志,无论是肉体上还是精神上。然而,只有与查理关系疏远的女儿艾莉才能让他看到目前绝望状态之外的未来,艾莉虽然尖酸刻薄、充满仇恨、浑身是刺,查理却能在她身上找到最后一次赎罪的机会,甚至可能是一丝希望。

点击图片可查看大图

软字幕无法在截图上展现,HDR版本/杜比视界版本截图会出现颜色异常,请使用支持的设备播放!

##### MediaInfo ######
General
Unique ID : 97733365847476689893417883186665739441 (0x4986C2F73E68EC4E8FD41BD09B45D4B1)
Complete name : The.Whale.2022.BluRay.REMUX.1080p.AVC.DTS-HD.MA5.1-DreamHD.mkv
Duration : 1 h 56 min
Overall bit rate mode : Variable
Overall bit rate : 28.8 Mb/s

Video
ID : 1
ID in the original source medium : 4113 (0x1011)
Format : AVC
Format/Info : Advanced Video Codec
Format profile : [email protected]
Format settings : CABAC / 4 Ref Frames
Format settings, CABAC : Yes
Format settings, Reference frames : 4 frames
Codec ID : V_MPEG4/ISO/AVC
Duration : 1 h 56 min
Bit rate mode : Variable
Bit rate : 25.0 Mb/s
Maximum bit rate : 35.0 Mb/s
Width : 1 920 pixels
Height : 1 080 pixels
Display aspect ratio : 16:9
Frame rate mode : Constant
Frame rate : 23.976 (24000/1001) FPS
Standard : NTSC
Color space : YUV
Chroma subsampling : 4:2:0
Bit depth : 8 bits
Scan type : Progressive
Bits/(Pixel*Frame) : 0.503
Stream size : 20.4 GiB (87%)
Language : English
Default : No
Forced : No
Color range : Limited
Color primaries : BT.709
Transfer characteristics : BT.709
Matrix coefficients : BT.709
Original source medium : Blu-ray

Audio
ID : 2
ID in the original source medium : 4352 (0x1100)
Format : DTS XLL
Format/Info : Digital Theater Systems
Commercial name : DTS-HD Master Audio
Codec ID : A_DTS
Duration : 1 h 56 min
Bit rate mode : Variable
Bit rate : 3 504 kb/s
Channel(s) : 6 channels
Channel layout : C L R Ls Rs LFE
Sampling rate : 48.0 kHz
Frame rate : 93.750 FPS (512 SPF)
Bit depth : 24 bits
Compression mode : Lossless
Stream size : 2.86 GiB (12%)
Title : 环绕声 5.1
Language : English
Default : Yes
Forced : No
Original source medium : Blu-ray

Text #1
ID : 3
ID in the original source medium : 4608 (0x1200)
Format : PGS
Codec ID : S_HDMV/PGS
Codec ID/Info : Picture based subtitle format used on BDs/HD-DVDs
Duration : 1 h 56 min
Bit rate : 39.9 kb/s
Frame rate : 0.494 FPS
Count of elements : 3438
Stream size : 33.1 MiB (0%)
Language : English
Default : Yes
Forced : No
Original source medium : Blu-ray

Text #2
ID : 4
ID in the original source medium : 4610 (0x1202)
Format : PGS
Codec ID : S_HDMV/PGS
Codec ID/Info : Picture based subtitle format used on BDs/HD-DVDs
Duration : 1 h 52 min
Bit rate : 50.6 kb/s
Frame rate : 0.652 FPS
Count of elements : 4419
Stream size : 40.9 MiB (0%)
Language : Chinese
Default : No
Forced : No
Original source medium : Blu-ray

Text #3
ID : 5
ID in the original source medium : 4611 (0x1203)
Format : PGS
Codec ID : S_HDMV/PGS
Codec ID/Info : Picture based subtitle format used on BDs/HD-DVDs
Duration : 1 h 52 min
Bit rate : 77.3 kb/s
Frame rate : 0.652 FPS
Count of elements : 4419
Stream size : 62.4 MiB (0%)
Language : Chinese
Default : No
Forced : No
Original source medium : Blu-ray

Text #4
ID : 6
ID in the original source medium : 4612 (0x1204)
Format : PGS
Codec ID : S_HDMV/PGS
Codec ID/Info : Picture based subtitle format used on BDs/HD-DVDs
Duration : 1 h 52 min
Bit rate : 51.6 kb/s
Frame rate : 0.652 FPS
Count of elements : 4419
Stream size : 41.7 MiB (0%)
Language : Chinese
Default : No
Forced : No
Original source medium : Blu-ray

Text #5
ID : 7
ID in the original source medium : 4613 (0x1205)
Format : PGS
Codec ID : S_HDMV/PGS
Codec ID/Info : Picture based subtitle format used on BDs/HD-DVDs
Duration : 1 h 52 min
Bit rate : 78.3 kb/s
Frame rate : 0.652 FPS
Count of elements : 4419
Stream size : 63.3 MiB (0%)
Language : Chinese
Default : No
Forced : No
Original source medium : Blu-ray

Menu
00:00:00.000 : en:Chapter 01
00:08:18.664 : en:Chapter 02
00:16:52.011 : en:Chapter 03
00:26:18.577 : en:Chapter 04
00:33:19.914 : en:Chapter 05
00:41:48.422 : en:Chapter 06
00:49:33.887 : en:Chapter 07
00:59:10.547 : en:Chapter 08
01:05:17.121 : en:Chapter 09
01:14:38.515 : en:Chapter 10
01:19:59.795 : en:Chapter 11
01:24:18.720 : en:Chapter 12
01:34:19.654 : en:Chapter 13
01:39:28.963 : en:Chapter 14
01:47:29.443 : en:Chapter 15
01:52:36.666 : en:Chapter 16


部分资源为软字幕,移动端推荐播放器:MxPlayer,nPlayer,infuse ,其他播放器请自行尝试。

部分资源为软字幕,电脑端推荐播放器:PotPlayer,完美解码,KMPLAYER,其他播放器请自行尝试。



1 个附件 售价 大小 下载 时间

The.Whale.2022.BluRay.REMUX.1080p.AVC.DTS-HD.MA5.1-DreamHD[1LOU.ME].torrent 0 金币 61.82K 1071 次 1月前

#1楼
发帖时间:2024-02-29 12:40:47   |   回复数:2
teddyluck
武林高手
人猿泰山,木乃伊主演竟然成了这个样子...
1月前 #2楼
feung18
武林盟主
感謝樓主辛苦 !
1月前 #3楼
游客组