Asuka601
隐世仙人♂

[2023] [欧美] [剧情] [BD-1080P] 我盛大的希腊婚礼3[中文字幕].My.Big.Fat.Greek.Wedding.3.2023.BluRay.1080p.AAC.x264-DreamHD 2.

-->

完整标题:我盛大的希腊婚礼3[中文字幕].My.Big.Fat.Greek.Wedding.3.2023.BluRay.1080p.AAC.x264-DreamHD 2.69GB



◎标  题 我盛大的希腊婚礼3
◎片  名 My Big Fat Greek Wedding 3
◎年  代 2023
◎产  地 美国
◎类  别 剧情 / 喜剧 / 爱情
◎语  言 英语
◎上映日期 2023-09-08(美国)
◎IMDb评分 5.2/10 (7045人评价)
◎IMDb链接 https://www.imdb.com/title/tt21103300/
◎豆瓣评分 5.5/10 (131人评价)
◎豆瓣链接 https://movie.douban.com/subject/36025414/
◎片  长 91分钟
◎导  演 妮娅·瓦达拉斯 Nia Vardalos
◎编  剧 妮娅·瓦达拉斯 Nia Vardalos
◎演  员 妮娅·瓦达拉斯 Nia Vardalos
      约翰·考伯特 John Corbett
      路易·曼迪勒 Louis Mandylor
      埃莱娜·康博里斯 Elena Kampouris
      莱妮·卡赞 Lainie Kazan
      安德列·马丁 Andrea Martin
      玛丽亚·瓦克拉西斯 Maria Vacratsis
      吉娅·卡迪斯 Gia Carides
      乔伊·费通 Joey Fatone
      伊莱亚斯 · 卡卡瓦斯 Elias Kacavas
      梅琳娜·科策卢 Melina Kotselou
      亚历克斯·吉奥古利斯 Alexis Georgoulis
      斯蒂芬妮·努尔 Stephanie Nur
      安西·安德烈奥普卢 Anthi Andreopoulou
      埃克托拉斯·卡卢迪斯 Ektoras Kaloudis
      德摩斯梯尼·菲利帕斯 Dimosthenis Filippas
      斯泰夫拉·洛戈蒂斯 Stavroula Logothettis
      彼得·塔罗斯 Peter Tharos
      格里·曼迪西诺 Gerry Mendicino
      雅尼斯·瓦西洛托斯 Giannis Vasilottos
      梅内劳斯·达弗洛斯 Menelaos Ntaflos
      斯皮罗斯·卡菲克斯 Spyros Kasfiks
      珍妮·卡列雅 Jeanie Calleja
      凯西·格林伍德 Kathryn Greenwood
      杰恩·伊斯特伍德 Jayne Eastwood
      凯思琳·哈吉斯 Kathryn Haggis
      坦妮斯·伯内特 Tannis Burnett

◎简  介
    《我盛大的希腊婚礼》将带着全新的冒险重回影院。与波托卡洛斯一家一起前往希腊参加家庭聚会,这将会是一次充满爱、曲折的温馨而欢闹的旅行。

点击图片可查看大图

软字幕无法在截图上展现,HDR版本/杜比视界版本截图会出现颜色异常,请使用支持的设备播放!

##### MediaInfo ######
General
Complete name : My.Big.Fat.Greek.Wedding.3.2023.BluRay.1080p.AAC.x264-DreamHD.mp4
Duration : 1 h 31 min
Overall bit rate : 4 197 kb/s

Video
ID : 1
Format : AVC
Format/Info : Advanced Video Codec
Format profile : Main@L4
Format settings : 4 Ref Frames
Format settings, CABAC : No
Format settings, Reference frames : 4 frames
Codec ID : avc1
Codec ID/Info : Advanced Video Coding
Duration : 1 h 31 min
Bit rate : 3 995 kb/s
Width : 1 920 pixels
Height : 1 080 pixels
Display aspect ratio : 16:9
Frame rate mode : Variable
Frame rate : 23.976 (24000/1001) FPS
Minimum frame rate : 23.974 FPS
Maximum frame rate : 23.981 FPS
Color space : YUV
Chroma subsampling : 4:2:0
Bit depth : 8 bits
Scan type : Progressive
Bits/(Pixel*Frame) : 0.080
Stream size : 2.56 GiB (95%)
Writing library : x264 core 164 r3100 ed0f7a6
Encoding settings : cabac=0 / ref=4 / deblock=0:0:0 / analyse=0x1:0x131 / me=umh / subme=9 / psy=1 / psy_rd=1.00:0.00 / mixed_ref=1 / me_range=16 / chroma_me=1 / trellis=2 / 8x8dct=0 / cqm=0 / deadzone=21,11 / fast_pskip=1 / chroma_qp_offset=-2 / threads=12 / lookahead_threads=1 / sliced_threads=0 / nr=0 / decimate=1 / interlaced=0 / bluray_compat=0 / constrained_intra=0 / bframes=3 / b_pyramid=2 / b_adapt=2 / b_bias=0 / direct=3 / weightb=0 / open_gop=0 / weightp=0 / keyint=240 / keyint_min=24 / scenecut=40 / intra_refresh=0 / rc_lookahead=60 / rc=2pass / mbtree=1 / bitrate=4000 / ratetol=1.0 / qcomp=0.60 / qpmin=0 / qpmax=69 / qpstep=4 / cplxblur=20.0 / qblur=0.5 / vbv_maxrate=20000 / vbv_bufsize=25000 / nal_hrd=none / filler=0 / ip_ratio=1.40 / aq=1:1.00
Encoded date : UTC 2024-02-27 16:49:35
Tagged date : UTC 2024-02-27 16:49:35
Color range : Limited
Color primaries : BT.709
Transfer characteristics : BT.709
Matrix coefficients : BT.709
Menus : 3
mdhd_Duration : 5513717
Codec configuration box : avcC

Audio
ID : 2
Format : AAC LC
Format/Info : Advanced Audio Codec Low Complexity
Codec ID : mp4a-40-2
Duration : 1 h 31 min
Source duration : 1 h 31 min
Bit rate mode : Constant
Bit rate : 192 kb/s
Channel(s) : 2 channels
Channel layout : L R
Sampling rate : 48.0 kHz
Frame rate : 46.875 FPS (1024 SPF)
Compression mode : Lossy
Stream size : 128 MiB (5%)
Source stream size : 128 MiB (5%)
Title : ENG
Language : English
Default : Yes
Alternate group : 1
Encoded date : UTC 2024-02-27 16:49:35
Tagged date : UTC 2024-02-27 16:49:35
Menus : 3

Menu
ID : 3
Format : Timed Text
Codec ID : text
Duration : 1 h 31 min
Language : English
Encoded date : UTC 2024-02-27 16:49:35
Tagged date : UTC 2024-02-27 16:49:35
Bit rate mode : CBR
Menu For : 1,2
00:00:00.000 : 第 01 章
00:06:17.961 : 第 02 章
00:10:57.866 : 第 03 章
00:14:09.515 : 第 04 章
00:17:24.293 : 第 05 章
00:20:24.557 : 第 06 章
00:25:23.564 : 第 07 章
00:28:42.971 : 第 08 章
00:32:23.900 : 第 09 章
00:35:42.599 : 第 10 章
00:39:56.519 : 第 11 章
00:44:39.177 : 第 12 章
00:47:34.727 : 第 13 章
00:54:04.658 : 第 14 章
00:59:24.394 : 第 15 章
01:05:52.115 : 第 16 章
01:10:19.048 : 第 17 章
01:16:12.485 : 第 18 章
01:23:22.956 : 第 19 章
01:24:44.538 : 第 20 章
Bit rate mode : Constant


部分资源为软字幕,移动端推荐播放器:MxPlayer,nPlayer,infuse ,其他播放器请自行尝试。

部分资源为软字幕,电脑端推荐播放器:PotPlayer,完美解码,KMPLAYER,其他播放器请自行尝试。



1 个附件 售价 大小 下载 时间

My.Big.Fat.Greek.Wedding.3.2023.BluRay.1080p.AAC.x264-DreamHD[1LOU.ME].torrent 0 金币 9.90K 707 次 1月前

#1楼
发帖时间:2024-02-29 08:02:38   |   回复数:0
游客组