Asuka601
隐世仙人♂

[2023] [欧美] [剧情] [WEB-1080P] 都是陌生人[无字片源].All.of.Us.Strangers.2023.1080p.Hulu.WEB-DL.DDP.5.1.H.264-DreamHD 3.9

-->

完整标题:都是陌生人[无字片源].All.of.Us.Strangers.2023.1080p.Hulu.WEB-DL.DDP.5.1.H.264-DreamHD 3.90GB



◎标  题 都是陌生人
◎译  名 亲爱的陌生人(台) / 我们都是陌生人 / 与幽灵同在的夏天 / 遭遇异人的夏天 / 异人们的夏天 / Strangers
◎片  名 All of Us Strangers
◎年  代 2023
◎产  地 美国 / 英国
◎类  别 剧情 / 同性 / 奇幻
◎语  言 英语
◎上映日期 2023-08-31(特柳赖德电影节) / 2023-12-22(美国) / 2024-01-26(英国)
◎IMDb评分 7.8/10 (23752人评价)
◎IMDb链接 https://www.imdb.com/title/tt21192142/
◎豆瓣评分 7.5/10 (8145人评价)
◎豆瓣链接 https://movie.douban.com/subject/35955811/
◎片  长 105分钟
◎导  演 安德鲁·海格 Andrew Haigh
◎编  剧 安德鲁·海格 Andrew Haigh
      山田太一 Taichi Yamada
◎演  员 安德鲁·斯科特 Andrew Scott
      保罗·麦斯卡 Paul Mescal
      卡特·约翰·格劳特 Carter John Grout
      杰米·贝尔 Jamie Bell
      克莱尔·芙伊 Claire Foy
      阿米·翠德莉娅 Ami Tredrea
      卡梅伦·阿什普朗特 Cameron Ashplant
      林肯·R·贝克特 Lincoln R. Beckett
      杰克·克罗宁 Jack Cronin
      克里斯蒂安·狄·修洛 Christian Di Sciullo
      奥利弗·弗兰克斯 Oliver Franks
      侯赛因·库齐 Hussein Kutsi
      古斯·洛佩斯 Gsus Lopez
      杰克·帕莱斯特 Jack Pallister
      盖·罗宾斯 Guy Robbins
      达伦·亚姆斯 Darren Ryames
      扎克瑞·蒂米斯 Zachary Timmis
      肖恩·提兹阿德 Sean Tizzard
      凯洛琳·范·沃赫 Carolina Van Wyhe

◎简  介
    本片改编自山田太一的小说,讲述伦敦编剧亚当(安德鲁·斯科特 饰)偶然遇到了他的神秘邻居(保罗·麦斯卡 饰),之后亚当回到了童年的家中,他发现早已去世的父亲(杰米·贝尔 饰)和母亲(克莱尔·芙伊 饰)居然还活着——并且他们看起来和三十年前死去的那天一样的年纪。

点击图片可查看大图

软字幕无法在截图上展现,HDR版本/杜比视界版本截图会出现颜色异常,请使用支持的设备播放!

##### MediaInfo ######
General
Unique ID : 1905048016549113821383128091206082723 (0x16EE61E71F806C071495635F123E0A3)
Complete name : All.of.Us.Strangers.2023.1080p.Hulu.WEB-DL.DDP.5.1.H.264-DreamHD.mkv
Duration : 1 h 45 min
Overall bit rate : 5 301 kb/s

Video
ID : 1
Format : AVC
Format/Info : Advanced Video Codec
Format profile : High@L4
Format settings : CABAC / 4 Ref Frames
Format settings, CABAC : Yes
Format settings, Reference frames : 4 frames
Codec ID : V_MPEG4/ISO/AVC
Duration : 1 h 45 min
Bit rate : 5 043 kb/s
Width : 1 920 pixels
Height : 1 080 pixels
Display aspect ratio : 16:9
Frame rate mode : Constant
Frame rate : 24.000 FPS
Color space : YUV
Chroma subsampling : 4:2:0
Bit depth : 8 bits
Scan type : Progressive
Bits/(Pixel*Frame) : 0.101
Stream size : 3.71 GiB (95%)
Language : English
Default : Yes
Forced : No

Audio
ID : 2
Format : E-AC-3
Format/Info : Enhanced AC-3
Commercial name : Dolby Digital Plus
Codec ID : A_EAC3
Duration : 1 h 45 min
Bit rate mode : Constant
Bit rate : 256 kb/s
Channel(s) : 6 channels
Channel layout : L R C LFE Ls Rs
Sampling rate : 48.0 kHz
Frame rate : 31.250 FPS (1536 SPF)
Compression mode : Lossy
Stream size : 193 MiB (5%)
Language : English
Service kind : Complete Main
Default : Yes
Forced : No

Text #1
ID : 3
Format : UTF-8
Codec ID : S_TEXT/UTF8
Codec ID/Info : UTF-8 Plain Text
Duration : 1 h 44 min
Bit rate : 44 b/s
Frame rate : 0.219 FPS
Count of elements : 1376
Stream size : 34.4 KiB (0%)
Title : SDH
Language : English
Default : No
Forced : No

Text #2
ID : 4
Format : UTF-8
Codec ID : S_TEXT/UTF8
Codec ID/Info : UTF-8 Plain Text
Duration : 1 h 43 min
Bit rate : 39 b/s
Frame rate : 0.193 FPS
Count of elements : 1197
Stream size : 29.9 KiB (0%)
Title : SDH
Language : Spanish
Default : No
Forced : No

Menu
00:00:00.000 : en:Chapter 01
00:13:34.130 : en:Chapter 02
00:30:53.070 : en:Chapter 03
00:47:33.020 : en:Chapter 04
01:02:44.010 : en:Chapter 05
01:17:00.040 : en:Chapter 06
01:29:01.020 : en:Chapter 07
01:42:30.020 : en:Credits


部分资源为软字幕,移动端推荐播放器:MxPlayer,nPlayer,infuse ,其他播放器请自行尝试。

部分资源为软字幕,电脑端推荐播放器:PotPlayer,完美解码,KMPLAYER,其他播放器请自行尝试。



1 个附件 售价 大小 下载 时间

All.of.Us.Strangers.2023.1080p.Hulu.WEB-DL.DDP.5.1.H.264-DreamHD[1LOU.ME].torrent 0 金币 12.85K 1477 次 1月前

#1楼
发帖时间:2024-02-26 13:33:19   |   回复数:0
游客组