Asuka601
隐世仙人♂

[2022] [欧美] [剧情] [BD-1080P] 她说[中文字幕].She.Said.2022.BluRay.REMUX.1080p.AVC.DTS-HD.MA5.1-DreamHD 35.38GB

-->

完整标题:她说[中文字幕].She.Said.2022.BluRay.REMUX.1080p.AVC.DTS-HD.MA5.1-DreamHD 35.38GB



◎标  题 她说
◎译  名 她有话要说(台)
◎片  名 She Said
◎年  代 2022
◎产  地 美国
◎类  别 剧情
◎语  言 英语
◎上映日期 2022-10-13(纽约电影节) / 2022-11-18(美国)
◎IMDb评分 7.3/10 (36735人评价)
◎IMDb链接 https://www.imdb.com/title/tt14807308/
◎豆瓣评分 7.8/10 (15311人评价)
◎豆瓣链接 https://movie.douban.com/subject/35493136/
◎片  长 129分钟
◎导  演 玛丽亚·施拉德 Maria Schrader
◎编  剧 丽贝卡·伦科维茨 Rebecca Lenkiewicz
      乔迪·坎托尔 Jodi Kantor
      梅根·吐赫 Megan Twohey
      丽贝卡·科贝特 Rebecca Corbett
◎演  员 凯瑞·穆里根 Carey Mulligan
      佐伊·卡赞 Zoe Kazan
      派翠西娅·克拉克森 Patricia Clarkson
      安德鲁·布劳尔 Andre Braugher
      詹妮弗·艾莉 Jennifer Ehle
      安杰拉·耶奥 Angela Yeoh
      马伦·赫伊 Maren Heary
      肖恩·卡伦 Sean Cullen
      阿纳斯塔西娅·巴兹 Anastasia Barzee
      凯莉麦奎尔 Keilly McQuail
      希拉里·格瑞尔 Hilary Greer
      蒂娜·王-卢 Tina WongLu
      南希·艾伦·萧尔 Nancy Ellen Shore
      艾玛·奥康纳 Emma O'Connor
      埃尔·格雷厄姆 Elle Graham
      杰森·巴宾斯基 Jason Babinsky
      皮特·弗雷德曼 Peter Friedman
      朱迪丝·戈德雷什 Judith Godrèche
      扎克·格雷尼尔 Zach Grenier
      麦克·休斯顿 Mike Houston
      詹姆士·奥斯汀·约翰逊 James Austin Johnson
      艾什莉·贾德 Ashley Judd
      黛拉·纳普 Dalya Knapp
      玛伦·洛德 Maren Lord
      萨曼莎·莫顿 Samantha Morton
      汤姆·派福瑞 Tom Pelphrey
      亚当·沙皮罗 Adam Shapiro
      莫莉·温德索尔 Molly Windsor
      比尔·奥雷利 Bill O'Reilly
      格温妮斯·帕特洛 Gwyneth Paltrow
      萨菲亚·奥克利-格林 Safia Oakley-Green

◎简  介
    故事聚焦《纽约时报》女记者乔迪·坎托尔(佐伊·卡赞 饰)与梅根·吐赫(凯瑞·穆里根 饰),她们联手撰写了这个世代最重要的一篇报道,进而引发#MeToo运动,不但揭发了好莱坞数十年来默许的性侵真相,也永远改变了美国文化。   影片根据畅销书《她说:打破性骚扰的故事,帮助点燃了一场运动》(She Said: Breaking the Sexual Harassment Story That Helped Ignite a Movement)改编。

##### MediaInfo ######
General
Unique ID : 305988999311417214556630256212125195946 (0xE633566FC06A0E112F2B132009249EAA)
Complete name : She.Said.2022.BluRay.REMUX.1080p.AVC.DTS-HD.MA5.1-DreamHD.mkv
Duration : 2 h 9 min
Overall bit rate mode : Variable
Overall bit rate : 39.2 Mb/s

Video
ID : 1
ID in the original source medium : 4113 (0x1011)
Format : AVC
Format/Info : Advanced Video Codec
Format profile : [email protected]
Format settings : CABAC / 2 Ref Frames
Format settings, CABAC : Yes
Format settings, Reference frames : 2 frames
Codec ID : V_MPEG4/ISO/AVC
Duration : 2 h 9 min
Bit rate mode : Variable
Bit rate : 35.7 Mb/s
Width : 1 920 pixels
Height : 1 080 pixels
Display aspect ratio : 16:9
Frame rate mode : Constant
Frame rate : 23.976 (24000/1001) FPS
Color space : YUV
Chroma subsampling : 4:2:0
Bit depth : 8 bits
Scan type : Progressive
Bits/(Pixel*Frame) : 0.719
Stream size : 32.2 GiB (91%)
Default : Yes
Forced : No
Original source medium : Blu-ray

Audio
ID : 2
ID in the original source medium : 4352 (0x1100)
Format : DTS XLL
Format/Info : Digital Theater Systems
Commercial name : DTS-HD Master Audio
Codec ID : A_DTS
Duration : 2 h 9 min
Bit rate mode : Variable
Bit rate : 3 345 kb/s
Channel(s) : 6 channels
Channel layout : C L R Ls Rs LFE
Sampling rate : 48.0 kHz
Frame rate : 93.750 FPS (512 SPF)
Bit depth : 24 bits
Compression mode : Lossless
Stream size : 3.02 GiB (9%)
Language : English
Default : Yes
Forced : No
Original source medium : Blu-ray

Text #1
ID : 3
ID in the original source medium : 4608 (0x1200)
Format : PGS
Muxing mode : zlib
Codec ID : S_HDMV/PGS
Codec ID/Info : Picture based subtitle format used on BDs/HD-DVDs
Duration : 2 h 0 min
Bit rate : 53.4 kb/s
Frame rate : 0.552 FPS
Count of elements : 4004
Stream size : 46.2 MiB (0%)
Language : English
Default : Yes
Forced : No
Original source medium : Blu-ray

Text #2
ID : 4
ID in the original source medium : 4611 (0x1203)
Format : PGS
Muxing mode : zlib
Codec ID : S_HDMV/PGS
Codec ID/Info : Picture based subtitle format used on BDs/HD-DVDs
Duration : 2 h 1 min
Bit rate : 35.3 kb/s
Frame rate : 0.520 FPS
Count of elements : 3794
Stream size : 30.6 MiB (0%)
Language : Chinese
Default : Yes
Forced : No
Original source medium : Blu-ray

Text #3
ID : 5
ID in the original source medium : 4612 (0x1204)
Format : PGS
Muxing mode : zlib
Codec ID : S_HDMV/PGS
Codec ID/Info : Picture based subtitle format used on BDs/HD-DVDs
Duration : 2 h 1 min
Bit rate : 36.2 kb/s
Frame rate : 0.520 FPS
Count of elements : 3794
Stream size : 31.5 MiB (0%)
Language : Chinese
Default : Yes
Forced : No
Original source medium : Blu-ray

Text #4
ID : 6
ID in the original source medium : 4613 (0x1205)
Format : PGS
Muxing mode : zlib
Codec ID : S_HDMV/PGS
Codec ID/Info : Picture based subtitle format used on BDs/HD-DVDs
Duration : 2 h 1 min
Bit rate : 59.2 kb/s
Frame rate : 0.520 FPS
Count of elements : 3794
Stream size : 51.5 MiB (0%)
Language : Chinese
Default : Yes
Forced : No
Original source medium : Blu-ray

Text #5
ID : 7
ID in the original source medium : 4614 (0x1206)
Format : PGS
Muxing mode : zlib
Codec ID : S_HDMV/PGS
Codec ID/Info : Picture based subtitle format used on BDs/HD-DVDs
Duration : 2 h 1 min
Bit rate : 60.2 kb/s
Frame rate : 0.520 FPS
Count of elements : 3794
Stream size : 52.3 MiB (0%)
Language : Chinese
Default : Yes
Forced : No
Original source medium : Blu-ray

Menu
00:00:00.000 : en:Chapter 01
00:05:08.975 : en:Chapter 02
00:10:08.441 : en:Chapter 03
00:16:42.209 : en:Chapter 04
00:24:04.192 : en:Chapter 05
00:30:52.725 : en:Chapter 06
00:38:18.671 : en:Chapter 07
00:44:01.472 : en:Chapter 08
00:51:38.553 : en:Chapter 09
00:57:29.654 : en:Chapter 10
01:10:16.712 : en:Chapter 11
01:18:21.238 : en:Chapter 12
01:23:29.504 : en:Chapter 13
01:32:26.749 : en:Chapter 14
01:36:46.884 : en:Chapter 15
01:40:46.248 : en:Chapter 16
01:46:01.438 : en:Chapter 17
01:50:34.878 : en:Chapter 18
01:57:02.390 : en:Chapter 19
02:02:46.359 : en:Chapter 20


部分资源为软字幕,移动端推荐播放器:MxPlayer,nPlayer,infuse ,其他播放器请自行尝试。

部分资源为软字幕,电脑端推荐播放器:PotPlayer,完美解码,KMPLAYER,其他播放器请自行尝试。



1 个附件 售价 大小 下载 时间

She.Said.2022.BluRay.REMUX.1080p.AVC.DTS-HD.MA5.1-DreamHD[1LOU.ME].torrent 0 金币 91.50K 1519 次 1月前

#1楼
发帖时间:2024-02-25 22:13:15   |   回复数:0
游客组