Asuka601
隐世仙人♂

[2023] [欧美] [喜剧] [BD-1080P] 飞鸭向前冲[国英多音轨/简繁英字幕].Migration.2023.V2.BluRay.1080p.TrueHD7.1.x265.10bit-DreamHD 4

-->

完整标题:飞鸭向前冲[国英多音轨/简繁英字幕].Migration.2023.V2.BluRay.1080p.TrueHD7.1.x265.10bit-DreamHD 4.85GB



◎标  题 飞鸭向前冲
◎译  名 鸭仔也移民(港)
◎片  名 Migration
◎年  代 2023
◎产  地 美国 / 法国 / 加拿大
◎类  别 喜剧 / 动作 / 动画 / 奇幻 / 冒险
◎语  言 英语
◎上映日期 2023-12-08(中国大陆) / 2023-12-22(美国)
◎IMDb评分 6.8/10 (6579人评价)
◎IMDb链接 https://www.imdb.com/title/tt6495056/
◎豆瓣评分 7.6/10 (3472人评价)
◎豆瓣链接 https://movie.douban.com/subject/36086942/
◎片  长 82分钟
◎导  演 本杰明·雷内 Benjamin Renner
      盖洛·霍姆西 Guylo Homsy
◎编  剧 本杰明·雷内 Benjamin Renner
      麦克·怀特 Mike White
◎演  员 库梅尔·南贾尼 Kumail Nanjiani
      伊丽莎白·班克斯 Elizabeth Banks
      科甘-迈克尔·凯 Keegan-Michael Key
      奥卡菲娜 Awkwafina
      丹尼·德维托 Danny DeVito
      卡罗尔·凯恩 Carol Kane
      大卫·米切尔 David Mitchell
      吉米·唐纳森 Jimmy Donaldson
      杰森·马林 Jason Marin
      特雷西·加扎尔 Tresi Gazal
      卡斯帕·詹宁斯 Caspar Jennings

◎简  介
    飞鸭马拉德一家向南迁徙前往热带的牙买加,却意外闯入疯狂大都市纽约?在紧张刺激的飞行之旅中,他们将如何化险为夷?

##### MediaInfo ######
General
Unique ID : 91995153144121949464331718306263907713 (0x45359F3C9040624E09D6664E47BABD81)
Complete name : Migration.2023.V2.BluRay.1080p.TrueHD7.1.x265.10bit-DreamHD.mkv
Duration : 1 h 22 min
Overall bit rate mode : Variable
Overall bit rate : 8 377 kb/s

Video
ID : 1
Format : HEVC
Format/Info : High Efficiency Video Coding
Format profile : Main [email protected]@High
Codec ID : V_MPEGH/ISO/HEVC
Duration : 1 h 22 min
Bit rate : 4 170 kb/s
Width : 1 920 pixels
Height : 804 pixels
Display aspect ratio : 2.40:1
Frame rate mode : Constant
Frame rate : 23.976 (24000/1001) FPS
Color space : YUV
Chroma subsampling : 4:2:0 (Type 2)
Bit depth : 10 bits
Bits/(Pixel*Frame) : 0.113
Stream size : 2.41 GiB (50%)
Writing library : x265 3.5+100-3dae0c3cc:[Windows][GCC 12.2.0][64 bit] 10bit
Encoding settings : cpuid=1111039 / frame-threads=4 / numa-pools=16 / wpp / no-pmode / no-pme / no-psnr / no-ssim / log-level=2 / input-csp=1 / input-res=1920x804 / interlace=0 / total-frames=119257 / level-idc=51 / high-tier=1 / uhd-bd=0 / ref=6 / no-allow-non-conformance / no-repeat-headers / annexb / no-aud / no-eob / no-eos / no-hrd / info / hash=0 / temporal-layers=0 / no-open-gop / min-keyint=23 / keyint=250 / gop-lookahead=0 / bframes=14 / b-adapt=2 / b-pyramid / bframe-bias=0 / rc-lookahead=75 / lookahead-slices=5 / scenecut=40 / no-hist-scenecut / radl=0 / no-splice / no-intra-refresh / ctu=32 / min-cu-size=8 / no-rect / no-amp / max-tu-size=32 / tu-inter-depth=1 / tu-intra-depth=1 / limit-tu=0 / rdoq-level=0 / dynamic-rd=0.00 / no-ssim-rd / signhide / no-tskip / nr-intra=0 / nr-inter=0 / no-constrained-intra / no-strong-intra-smoothing / max-merge=3 / limit-refs=1 / no-limit-modes / me=3 / subme=7 / merange=48 / temporal-mvp / no-frame-dup / hme / Level / merange / L0,L1,L2=24,36,48 / weightp / weightb / no-analyze-src-pics / deblock=0:0 / sao / no-sao-non-deblock / rd=4 / selective-sao=4 / early-skip / rskip / no-fast-intra / no-tskip-fast / no-cu-lossless / b-intra / no-splitrd-skip / rdpenalty=2 / psy-rd=2.00 / psy-rdoq=0.00 / no-rd-refine / no-lossless / cbqpoffs=0 / crqpoffs=0 / rc=crf / crf=15.0 / qcomp=0.60 / qpstep=4 / stats-write=0 / stats-read=0 / vbv-maxrate=160000 / vbv-bufsize=160000 / vbv-init=0.9 / min-vbv-fullness=50.0 / max-vbv-fullness=80.0 / crf-max=0.0 / crf-min=0.0 / ipratio=1.40 / pbratio=1.30 / aq-mode=1 / aq-strength=1.00 / cutree / zone-count=0 / no-strict-cbr / qg-size=32 / no-rc-grain / qpmax=69 / qpmin=0 / no-const-vbv / sar=0 / overscan=0 / videoformat=5 / range=0 / colorprim=1 / transfer=1 / colormatrix=1 / chromaloc=1 / chromaloc-top=2 / chromaloc-bottom=2 / display-window=0 / cll=0,0 / min-luma=0 / max-luma=1023 / log2-max-poc-lsb=8 / vui-timing-info / vui-hrd-info / slices=1 / no-opt-qp-pps / no-opt-ref-list-length-pps / no-multi-pass-opt-rps / scenecut-bias=0.05 / no-opt-cu-delta-qp / aq-motion / no-hdr10 / no-hdr10-opt / no-dhdr10-opt / no-idr-recovery-sei / analysis-reuse-level=0 / analysis-save-reuse-level=0 / analysis-load-reuse-level=0 / scale-factor=0 / refine-intra=0 / refine-inter=0 / refine-mv=1 / refine-ctu-distortion=0 / no-limit-sao / ctu-info=0 / no-lowpass-dct / refine-analysis-type=0 / copy-pic=1 / max-ausize-factor=1.0 / no-dynamic-refine / no-single-sei / no-hevc-aq / no-svt / no-field / qp-adaptation-range=1.00 / scenecut-aware-qp=0conformance-window-offsets / right=0 / bottom=0 / decoder-max-rate=0 / no-vbv-live-multi-pass / no-mcstf / no-sbrc
Default : Yes
Forced : No
Color range : Limited
Color primaries : BT.709
Transfer characteristics : BT.709
Matrix coefficients : BT.709

Audio #1
ID : 2
ID in the original source medium : 4352 (0x1100)
Format : MLP FBA 16-ch
Format/Info : Meridian Lossless Packing FBA with 16-channel presentation
Commercial name : Dolby TrueHD with Dolby Atmos
Codec ID : A_TRUEHD
Duration : 1 h 22 min
Bit rate mode : Variable
Bit rate : 3 301 kb/s
Maximum bit rate : 4 590 kb/s
Channel(s) : 8 channels
Channel layout : L R C LFE Ls Rs Lb Rb
Sampling rate : 48.0 kHz
Frame rate : 1 200.000 FPS (40 SPF)
Compression mode : Lossless
Stream size : 1.91 GiB (39%)
Language : English
Default : Yes
Forced : No
Original source medium : Blu-ray
Number of dynamic objects : 11
Bed channel count : 1 channel
Bed channel configuration : LFE

Audio #2
ID : 3
ID in the original source medium : 4355 (0x1103)
Format : AC-3
Format/Info : Audio Coding 3
Commercial name : Dolby Digital
Codec ID : A_AC3
Duration : 1 h 22 min
Bit rate mode : Constant
Bit rate : 192 kb/s
Channel(s) : 2 channels
Channel layout : L R
Sampling rate : 48.0 kHz
Frame rate : 31.250 FPS (1536 SPF)
Compression mode : Lossy
Stream size : 114 MiB (2%)
Title : Commentary
Language : English
Service kind : Complete Main
Default : Yes
Forced : No
Original source medium : Blu-ray

Audio #3
ID : 4
Format : AC-3
Format/Info : Audio Coding 3
Commercial name : Dolby Digital
Codec ID : A_AC3
Duration : 1 h 22 min
Bit rate mode : Constant
Bit rate : 448 kb/s
Channel(s) : 6 channels
Channel layout : L R C LFE Ls Rs
Sampling rate : 48.0 kHz
Frame rate : 31.250 FPS (1536 SPF)
Compression mode : Lossy
Stream size : 266 MiB (5%)
Title : SYGP
Language : Chinese
Service kind : Complete Main
Default : Yes
Forced : No

Text #1
ID : 5
ID in the original source medium : 4608 (0x1200)
Format : PGS
Codec ID : S_HDMV/PGS
Codec ID/Info : Picture based subtitle format used on BDs/HD-DVDs
Duration : 1 h 17 min
Bit rate : 55.7 kb/s
Frame rate : 0.738 FPS
Count of elements : 3422
Stream size : 30.8 MiB (1%)
Language : English
Default : Yes
Forced : No
Original source medium : Blu-ray

Text #2
ID : 6
ID in the original source medium : 4611 (0x1203)
Format : PGS
Codec ID : S_HDMV/PGS
Codec ID/Info : Picture based subtitle format used on BDs/HD-DVDs
Duration : 1 h 17 min
Bit rate : 27.7 kb/s
Frame rate : 0.514 FPS
Count of elements : 2384
Stream size : 15.3 MiB (0%)
Title : Chs
Language : Chinese
Default : Yes
Forced : No
Original source medium : Blu-ray

Text #3
ID : 7
ID in the original source medium : 4612 (0x1204)
Format : PGS
Codec ID : S_HDMV/PGS
Codec ID/Info : Picture based subtitle format used on BDs/HD-DVDs
Duration : 1 h 17 min
Bit rate : 28.1 kb/s
Frame rate : 0.514 FPS
Count of elements : 2384
Stream size : 15.5 MiB (0%)
Title : Cht
Language : Chinese
Default : Yes
Forced : No
Original source medium : Blu-ray

Text #4
ID : 8
ID in the original source medium : 4613 (0x1205)
Format : PGS
Codec ID : S_HDMV/PGS
Codec ID/Info : Picture based subtitle format used on BDs/HD-DVDs
Duration : 1 h 17 min
Bit rate : 51.0 kb/s
Frame rate : 0.514 FPS
Count of elements : 2384
Stream size : 28.2 MiB (1%)
Title : Chs&Eng
Language : Chinese
Default : Yes
Forced : No
Original source medium : Blu-ray

Text #5
ID : 9
ID in the original source medium : 4614 (0x1206)
Format : PGS
Codec ID : S_HDMV/PGS
Codec ID/Info : Picture based subtitle format used on BDs/HD-DVDs
Duration : 1 h 17 min
Bit rate : 51.5 kb/s
Frame rate : 0.514 FPS
Count of elements : 2384
Stream size : 28.4 MiB (1%)
Title : Cht&Eng
Language : Chinese
Default : Yes
Forced : No
Original source medium : Blu-ray

Menu
00:00:00.000 : en:第 01 章
00:04:50.707 : en:第 02 章
00:07:42.670 : en:第 03 章
00:12:51.020 : en:第 04 章
00:16:18.227 : en:第 05 章
00:20:38.237 : en:第 06 章
00:24:04.568 : en:第 07 章
00:28:43.847 : en:第 08 章
00:33:57.660 : en:第 09 章
00:35:41.139 : en:第 10 章
00:39:22.693 : en:第 11 章
00:44:15.653 : en:第 12 章
00:48:39.416 : en:第 13 章
00:53:02.387 : en:第 14 章
00:58:43.686 : en:第 15 章
01:04:28.948 : en:第 16 章
01:08:28.104 : en:第 17 章
01:10:42.321 : en:第 18 章
01:15:53.840 : en:第 19 章
01:17:20.469 : en:第 20 章


部分资源为软字幕,移动端推荐播放器:MxPlayer,nPlayer,infuse ,其他播放器请自行尝试。

部分资源为软字幕,电脑端推荐播放器:PotPlayer,完美解码,KMPLAYER,其他播放器请自行尝试。



1 个附件 售价 大小 下载 时间

Migration.2023.V2.BluRay.1080p.TrueHD7.1.x265.10bit-DreamHD[1LOU.ME].torrent 0 金币 15.31K 2268 次 1月前

#1楼
发帖时间:2024-02-25 22:08:49   |   回复数:1
JYLin26
一派掌门
Thanks
1月前 #2楼
游客组