Asuka601
隐世仙人♂

[2024] [大陆] [爱情] [WEB-4K] 孟婆传之缘起[高码版][国语配音/中文字幕].Biography.of.Meng.Po.2024.2160p.HQ.WEB-DL.H265.DDP2.0-Dre

-->

完整标题:孟婆传之缘起[高码版][国语配音/中文字幕].Biography.of.Meng.Po.2024.2160p.HQ.WEB-DL.H265.DDP2.0-DreamHD 10.81GB



◎标  题 孟婆传之缘起
◎年  代 2024
◎产  地 中国大陆
◎类  别 爱情 / 奇幻 / 古装
◎语  言 汉语普通话
◎上映日期 2024-02-25(中国大陆)
◎IMDb链接 https://www.imdb.com/title//
◎豆瓣链接 https://movie.douban.com/subject/36782575/

◎简  介
    地界的孟婆,管理黄泉操持白事。天界的月老,主管姻缘红事。一红一白,原本是互不相干的神话人物,却有着千丝万缕的关系。电影《孟婆传之缘起》以宿命、神话爱情为主题,深度挖掘孟婆、月老这对儿具有极高大众认知度,且职能具有一定冲突性的神话人物之间的前世今生。

点击图片可查看大图

软字幕无法在截图上展现,HDR版本/杜比视界版本截图会出现颜色异常,请使用支持的设备播放!

##### MediaInfo ######
General
Unique ID : 193293767406045784742663632354374252895 (0x916B068545AF68508DD5C1822AC6F95F)
Complete name : Biography.of.Meng.Po.2024.2160p.HQ.WEB-DL.H265.DDP2.0-DreamHD.mkv
Duration : 1 h 16 min
Overall bit rate : 20.4 Mb/s

Video
ID : 1
Format : HEVC
Format/Info : High Efficiency Video Coding
Format profile : Main [email protected]@Main
Codec ID : V_MPEGH/ISO/HEVC
Duration : 1 h 16 min
Bit rate : 19.8 Mb/s
Width : 3 840 pixels
Height : 1 456 pixels
Display aspect ratio : 2.637
Frame rate mode : Constant
Frame rate : 24.000 FPS
Color space : YUV
Chroma subsampling : 4:2:0
Bit depth : 10 bits
Bits/(Pixel*Frame) : 0.148
Stream size : 10.5 GiB (97%)
Default : Yes
Forced : No
Color range : Limited
Color primaries : BT.709
Transfer characteristics : BT.709
Matrix coefficients : BT.709

Audio #1
ID : 2
Format : E-AC-3
Format/Info : Enhanced AC-3
Commercial name : Dolby Digital Plus
Codec ID : A_EAC3
Duration : 1 h 16 min
Bit rate mode : Constant
Bit rate : 256 kb/s
Channel(s) : 2 channels
Channel layout : L R
Sampling rate : 48.0 kHz
Frame rate : 31.250 FPS (1536 SPF)
Bit depth : 32 bits
Compression mode : Lossy
Stream size : 139 MiB (1%)
Title : Mandarin [DDP2.0]
Language : Chinese
Service kind : Complete Main
Default : Yes
Forced : No

Audio #2
ID : 3
Format : AAC LC
Format/Info : Advanced Audio Codec Low Complexity
Codec ID : A_AAC-2
Duration : 1 h 16 min
Bit rate : 256 kb/s
Channel(s) : 2 channels
Channel layout : L R
Sampling rate : 44.1 kHz
Frame rate : 43.066 FPS (1024 SPF)
Compression mode : Lossy
Stream size : 139 MiB (1%)
Title : Mandarin [AAC2.0]
Language : Chinese
Default : No
Forced : No


部分资源为软字幕,移动端推荐播放器:MxPlayer,nPlayer,infuse ,其他播放器请自行尝试。

部分资源为软字幕,电脑端推荐播放器:PotPlayer,完美解码,KMPLAYER,其他播放器请自行尝试。



1 个附件 售价 大小 下载 时间

Biography.of.Meng.Po.2024.2160p.HQ.WEB-DL.H265.DDP2.0-DreamHD[1LOU.ME].torrent 0 金币 30.12K 2125 次 1月前

#1楼
发帖时间:2024-02-25 18:56:59   |   回复数:0
游客组